BitTorrentTracker PerecTracker.org
BitTorrentTracker PerecTracker.org
    
Регистрация  ·  Вход
 
 · 
Забыли пароль?

  • Ловушка для привидения / Gespensterjäger (Тоби Бауманн / Tobi Baumann) [2015, Германия, Австрия, Ирландия, фэнтези, комедия, семейный, HDRip-AVC] Dub (iTunes) + Original Eng

    Ответить на тему
     
    Автор Сообщение

    Light

    Создавать темы 08-Июл-2016 19:42

           

    [Цитировать]

    Ловушка для привидения / Gespensterjäger
    Страна: Германия, Австрия, Ирландия
    Жанр: фэнтези, комедия, семейный
    Год выпуска: 2015
    Продолжительность: 01:38:48
    Перевод: Профессиональный (дублированный) iTunes
    Cубтитры: нет
    Оригинальная аудиодорожка: английский--Режиссер: Тоби Бауманн / Tobi Baumann--В ролях: Анке Энгельке, Майло Паркер, Бастиан Пастевка, Каролине Херфурт, Кристиан Трамиц, Кристиан Ульмен, Юлия Кошиц, Руби О. Фи, Эми Хубермэн, Бибиан Целлер, Каролин Кебекус, Аксель Штайн, Нина Фог, Патрик Мёллекен, Гленда Миллар, Скотт Мюррэй...--Описание: История 11-летнего одинокого Тома. После встречи с очаровательным упитанным привидением Хьюго в подвале своего дома жизнь мальчика изменится самым удивительным образом. Ему придется проявить истинную храбрость и на пару с охотницей за привидениями Хэтти помочь Хьюго вернуться к себе домой. Для этого героям нужно пройти через массу препятствий, чтобы уничтожить Древний Дух Льда, который живет в доме Хьюго, и грозит повергнуть весь город в вечную мерзлоту. Но для того, чтобы совершить подвиги, Тому и Хэтти нужно будет заглянуть к себе в сердце…--Доп. информация: | IMDB | КиноПоиск | Сэмпл |

    --Качество видео: HDRip-AVC Ловушка для привидения (2015) BDRip 1080p. Kinozal
    Формат видео: MKV
    Видео: AVC, 960x400 (2.40:1), 1424 kbps, 23.976 fps, 0.155 bit/pixel
    Аудио 1: AC3 Dolby Digital, 3/2 (L,C,R,l,r) + LFE ch, 48 kHz, 384 kbps
    Аудио 2: AC3 Dolby Digital, 3/2 (L,C,R,l,r) + LFE ch, 48 kHz, 384 kbps

    Скриншоты

    MediaInfo

    x264

    raw [info]: 960x400p 1:1 @ 24000/1001 fps (cfr)
    x264 [info]: using SAR=1/1
    x264 [info]: using cpu capabilities: MMX2 SSE2Fast SSSE3 SSE4.2 AVX
    x264 [info]: profile High, level 4.1
    x264 [info]: frame I:1391 Avg QP:17.11 size: 47818
    x264 [info]: frame P:32821 Avg QP:18.99 size: 15185
    x264 [info]: frame B:107933 Avg QP:21.94 size: 4544
    x264 [info]: consecutive B-frames: 1.8% 2.0% 6.8% 49.1% 11.7% 18.7% 4.1% 4.0% 0.3% 0.1% 0.1% 0.1% 0.1% 0.1% 0.2% 0.6%
    x264 [info]: mb I I16..4: 12.3% 65.3% 22.4%
    x264 [info]: mb P I16..4: 1.8% 7.1% 1.5% P16..4: 41.3% 19.3% 16.4% 0.8% 0.3% skip:11.6%
    x264 [info]: mb B I16..4: 0.1% 0.6% 0.2% B16..8: 36.6% 9.0% 2.8% direct: 4.2% skip:46.6% L0:41.1% L1:46.1% BI:12.8%
    x264 [info]: 8x8 transform intra:67.8% inter:61.3%
    x264 [info]: coded y,uvDC,uvAC intra: 75.5% 83.6% 68.7% inter: 16.2% 19.5% 6.5%
    x264 [info]: i16 v,h,dc,p: 49% 15% 10% 26%
    x264 [info]: i8 v,h,dc,ddl,ddr,vr,hd,vl,hu: 12% 10% 11% 8% 12% 12% 12% 11% 12%
    x264 [info]: i4 v,h,dc,ddl,ddr,vr,hd,vl,hu: 12% 10% 6% 9% 14% 13% 13% 11% 13%
    x264 [info]: i8c dc,h,v,p: 41% 23% 21% 15%
    x264 [info]: Weighted P-Frames: Y:5.1% UV:2.4%
    x264 [info]: ref P L0: 50.0% 10.3% 16.0% 6.3% 4.5% 3.8% 3.1% 1.7% 1.4% 1.4% 1.3% 0.1% 0.0%
    x264 [info]: ref B L0: 75.5% 10.3% 5.2% 2.4% 1.7% 1.6% 1.8% 0.8% 0.4% 0.3%
    x264 [info]: ref B L1: 94.0% 6.0%
    x264 [info]: kb/s:1424.08
    General
    Unique ID : 196787303576867274501719583929520092650 (0x940BDB26F86BAFA4ABD4D7365A13F5EA)
    Format : Matroska
    Format version : Version 4 / Version 2
    File size : 1.51 GiB
    Duration : 1h 38mn
    Overall bit rate : 2 194 Kbps
    Movie name : Ловушка для привидения / Gespensterjäger (2015)
    Encoded date : UTC 2016-07-08 05:22:55
    Writing application : mkvmerge v8.1.0 ('Psychedelic Postcard') 64bit
    Writing library : libebml v1.3.1 + libmatroska v1.4.2
    Cover : Yes
    Attachments : cover.jpg
    Video
    ID : 1
    Format : AVC
    Format/Info : Advanced Video Codec
    Format profile : High@L4.1
    Format settings, CABAC : Yes
    Format settings, ReFrames : 11 frames
    Codec ID : V_MPEG4/ISO/AVC
    Duration : 1h 38mn
    Bit rate : 1 424 Kbps
    Width : 960 pixels
    Height : 400 pixels
    Display aspect ratio : 2.40:1
    Frame rate mode : Constant
    Frame rate : 23.976 (24000/1001) fps
    Color space : YUV
    Chroma subsampling : 4:2:0
    Bit depth : 8 bits
    Scan type : Progressive
    Bits/(Pixel*Frame) : 0.155
    Stream size : 1 006 MiB (65%)
    Title : Gespensterjäger (2015) By optik.1557
    Writing library : x264 core 148 r2705kMod 3f5ed56
    Encoding settings : cabac=1 / ref=11 / deblock=1:-2:-1 / analyse=0x3:0x133 / me=umh / subme=10 / psy=1 / fade_compensate=0.00 / psy_rd=1.03:0.05 / mixed_ref=1 / me_range=48 / chroma_me=1 / trellis=2 / 8x8dct=1 / cqm=0 / deadzone=21,11 / fast_pskip=0 / chroma_qp_offset=-3 / threads=6 / lookahead_threads=1 / sliced_threads=0 / nr=0 / decimate=1 / interlaced=0 / bluray_compat=0 / constrained_intra=0 / fgo=0 / bframes=15 / b_pyramid=2 / b_adapt=2 / b_bias=0 / direct=1 / weightb=1 / open_gop=0 / weightp=2 / keyint=250 / keyint_min=23 / scenecut=40 / intra_refresh=0 / rc_lookahead=60 / rc=crf / mbtree=0 / crf=18.7000 / qcomp=0.60 / qpmin=0 / qpmax=69 / qpstep=4 / vbv_maxrate=50000 / vbv_bufsize=62500 / crf_max=0.0 / nal_hrd=none / filler=0 / ip_ratio=1.40 / pb_ratio=1.30 / aq=2:0.90
    Language : English
    Default : Yes
    Forced : No
    Audio #1
    ID : 2
    Format : AC-3
    Format/Info : Audio Coding 3
    Mode extension : CM (complete main)
    Format settings, Endianness : Big
    Codec ID : A_AC3
    Duration : 1h 38mn
    Bit rate mode : Constant
    Bit rate : 384 Kbps
    Channel(s) : 6 channels
    Channel positions : Front: L C R, Side: L R, LFE
    Sampling rate : 48.0 KHz
    Frame rate : 31.250 fps (1536 spf)
    Compression mode : Lossy
    Stream size : 271 MiB (18%)
    Title : Дубляж. iTunes
    Language : Russian
    Default : Yes
    Forced : No
    Audio #2
    ID : 3
    Format : AC-3
    Format/Info : Audio Coding 3
    Mode extension : CM (complete main)
    Format settings, Endianness : Big
    Codec ID : A_AC3
    Duration : 1h 38mn
    Bit rate mode : Constant
    Bit rate : 384 Kbps
    Channel(s) : 6 channels
    Channel positions : Front: L C R, Side: L R, LFE
    Sampling rate : 48.0 KHz
    Frame rate : 31.250 fps (1536 spf)
    Compression mode : Lossy
    Stream size : 271 MiB (18%)
    Title : Original
    Language : English
    Default : No
    Forced : No
    Menu
    00:00:00.000 : en:Chapter 01
    00:07:07.927 : en:Chapter 02
    00:15:50.824 : en:Chapter 03
    00:25:28.693 : en:Chapter 04
    00:32:54.430 : en:Chapter 05
    00:40:22.420 : en:Chapter 06
    00:49:44.189 : en:Chapter 07
    00:58:54.697 : en:Chapter 08
    01:07:35.134 : en:Chapter 09
    01:14:43.729 : en:Chapter 10
    01:21:47.986 : en:Chapter 11
    01:29:44.796 : en:Chapter 12
    Скачать .torrent

    Скачать торрент-файл бесплатно и на максимальной скорости!

    Как скачивать? · Что такое торрент? · Рейтинг и ограничения

    !ВНИМАНИЕ!
    Сайт не распространяет и не хранит электронные версии произведений, а занимается лишь лишь предоставлением доступа к создаваемому пользователями каталогу ссылок на торрент-файлы, которые содержат только списки хеш-сумм, убедительная просьба с жалобами обращаться напрямую к пользователю. Файлы для обмена на трекере предоставлены пользователями сайта, и администрация не несёт ответственности за их содержание. Просьба не заливать файлы, защищенные авторскими правами, а также файлы нелегального содержания!


    _________________
    [Профиль] [ЛС]
    Показать сообщения:    
    Ответить на тему

    Текущее время: Сегодня, в 16:31

    Часовой пояс: GMT + 2



    Вы не можете начинать темы
    Вы не можете отвечать на сообщения
    Вы не можете редактировать свои сообщения
    Вы не можете удалять свои сообщения
    Вы не можете голосовать в опросах
    Вы не можете прикреплять файлы к сообщениям
    Вы не можете скачивать файлы