BitTorrentTracker PerecTracker.org
BitTorrentTracker PerecTracker.org
    
Регистрация  ·  Вход
 
 · 
Забыли пароль?

  • Попутчик / The Hitcher (Дэйв Мейерс / Dave Meyers) [2007, США, боевик, триллер, криминал, HD-DVDRip 720p] Dub (R5) + MVO (Киномания) + MVO + AVO (Немахов) + DVO (Ukr) + MVO (Ukr) + Sub Rus, Eng + Original Eng

    Ответить на тему
     
    Автор Сообщение

    Light

    Создавать темы 08-Июл-2016 15:30

           

    [Цитировать]

    Попутчик / The Hitcher
    Страна: США
    Студия: Focus Features, Intrepid Pictures, Platinum Dunes
    Жанр: боевик, триллер, криминал
    Год выпуска: 2007
    Продолжительность: 01:23:50
    Перевод 1: Профессиональный (дублированный) R5
    Перевод 2: Профессиональный (многоголосый закадровый) Киномания
    Перевод 3: Профессиональный (многоголосый закадровый)
    Перевод 4: Авторский (одноголосый закадровый) Ю. Немахов
    Cубтитры: русские, русские (Киномания), английские, английские (SDH)
    Оригинальная аудиодорожка: английский
    Режиссер: Дэйв Мейерс / Dave Meyers
    В ролях: Шон Бин, София Буш, Захари Найтон, Нил МакДонаф, Кайл Дэвис, Скип О’Брайэн, Трэвис Шульдт, Дэнни Болеро, Джеффри Хатчинсон, Яра Мартинес
    Описание: Молодая пара несется на автомобиле по бескрайним просторам Америки. Кругом темнота, дождь льет как из ведра и видно лишь небольшой участок шоссе, освещенный фарами. Внезапно перед ними возникает темный силуэт человека, голосующего на дороге! Парень хочет подвезти его, но девушка категорически против. Видимо, женская интуиция подсказывает ей, что это знакомство не сулит ничего хорошего. Ребята уезжают прочь. К сожалению, познакомиться с ним все-таки придется...
    Попутчик оказывается безумным маньяком, который хладнокровно убивает всех, кто встречается на пути влюбленной пары. И самое страшное в этой ситуации - абсолютно непонятны его мотивы.- -Сэмпл: https://yadi.sk/i/iMY5kyvet6esv
    Тип релиза: HDDVDRip 720p [SbR]
    Контейнер: MKV
    Видео: h.264, 1280x534, 23.976 fps, 7992 kbps
    Аудио #1: Russian: DTS 5.1, 48 kHz/24-bit, 768 kbps avg |Дубляж, R5|
    Аудио #2: Russian: AC3 5.1, 48 kHz, 384 kbps avg |Многоголосый закадровый, Киномания|
    Аудио #3: Russian: AC3 5.1, 48 kHz, 448 kbps avg |Многоголосый закадровый|
    Аудио #4: Russian: DTS 5.1, 48 kHz/24-bit, 768 kbps avg |Одноголосый закадровый, Ю. Немахов|
    Аудио #5: Ukrainian: AC3 2.0, 48 kHz, 192 kbps avg |Двухголосый закадровый, 1+1|
    Аудио #6: Ukrainian: AC3 2.0, 48 kHz, 192 kbps avg |Многоголосый закадровый, НЛО.TV|
    Аудио #7: English: DTS 5.1, 48 kHz/16-bit, 1536 kbps avg |Оригинал|
    Формат субтитров: softsub (SRT)

    MediaInfo

    Complete name : E:\The.Hitcher.2007.720p.HDDVD.4xRus.2xUkr.Eng.HDCLUB-SbR.mkv
    Format : Matroska
    Format version : Version 2
    File size : 7.31 GiB
    Duration : 1h 23mn
    Overall bit rate : 12.5 Mbps
    Movie name : The Hitcher (2007) - Encode by SbR
    Encoded date : UTC 2016-07-01 04:59:33
    Writing application : mkvmerge v9.2.0 ('Photograph') 64bit
    Writing library : libebml v1.3.3 + libmatroska v1.4.4
    Cover : Yes
    Attachments : cover.jpg / xlog.txt
    Video
    ID : 1
    Format : AVC
    Format/Info : Advanced Video Codec
    Format profile : High@L4.1
    Format settings, CABAC : Yes
    Format settings, ReFrames : 12 frames
    Codec ID : V_MPEG4/ISO/AVC
    Duration : 1h 23mn
    Bit rate : 7 992 Kbps
    Width : 1 280 pixels
    Height : 534 pixels
    Display aspect ratio : 2.40:1
    Frame rate mode : Constant
    Frame rate : 23.976 (24000/1001) fps
    Color space : YUV
    Chroma subsampling : 4:2:0
    Bit depth : 8 bits
    Scan type : Progressive
    Bits/(Pixel*Frame) : 0.488
    Stream size : 4.68 GiB (64%)
    Writing library : x264 core 148 r2692kMod 64f4e24
    Encoding settings : cabac=1 / ref=12 / deblock=1:-2:-2 / analyse=0x3:0x133 / me=umh / subme=11 / psy=1 / fade_compensate=0.00 / psy_rd=1.00:0.00 / mixed_ref=1 / me_range=32 / chroma_me=1 / trellis=2 / 8x8dct=1 / cqm=0 / deadzone=21,11 / fast_pskip=1 / chroma_qp_offset=-2 / threads=12 / lookahead_threads=2 / sliced_threads=0 / nr=0 / decimate=1 / interlaced=0 / bluray_compat=0 / constrained_intra=0 / fgo=0 / bframes=8 / b_pyramid=2 / b_adapt=2 / b_bias=0 / direct=1 / weightb=1 / open_gop=0 / weightp=2 / keyint=250 / keyint_min=23 / scenecut=40 / intra_refresh=0 / rc_lookahead=60 / rc=crf / mbtree=0 / crf=17.0000 / qcomp=0.60 / qpmin=0 / qpmax=69 / qpstep=4 / vbv_maxrate=62500 / vbv_bufsize=78125 / crf_max=0.0 / nal_hrd=none / filler=0 / ip_ratio=1.20 / pb_ratio=1.10 / aq=1:0.80
    Language : English
    Default : Yes
    Forced : No
    Color range : Limited
    Color primaries : BT.709
    Transfer characteristics : BT.709
    Matrix coefficients : BT.709
    Audio #1
    ID : 2
    Format : DTS
    Format/Info : Digital Theater Systems
    Mode : 16
    Format settings, Endianness : Big
    Codec ID : A_DTS
    Duration : 1h 23mn
    Bit rate mode : Constant
    Bit rate : 768 Kbps
    Channel(s) : 6 channels
    Channel positions : Front: L C R, Side: L R, LFE
    Sampling rate : 48.0 KHz
    Frame rate : 93.750 fps (512 spf)
    Bit depth : 24 bits
    Compression mode : Lossy
    Stream size : 461 MiB (6%)
    Title : Дубляж
    Language : Russian
    Default : Yes
    Forced : No
    Audio #2
    ID : 3
    Format : AC-3
    Format/Info : Audio Coding 3
    Mode extension : CM (complete main)
    Format settings, Endianness : Big
    Codec ID : A_AC3
    Duration : 1h 23mn
    Bit rate mode : Constant
    Bit rate : 384 Kbps
    Channel(s) : 6 channels
    Channel positions : Front: L C R, Side: L R, LFE
    Sampling rate : 48.0 KHz
    Frame rate : 31.250 fps (1536 spf)
    Compression mode : Lossy
    Stream size : 230 MiB (3%)
    Title : Многоголосый, Киномания
    Language : Russian
    Default : No
    Forced : No
    Audio #3
    ID : 4
    Format : AC-3
    Format/Info : Audio Coding 3
    Mode extension : CM (complete main)
    Format settings, Endianness : Big
    Codec ID : A_AC3
    Duration : 1h 23mn
    Bit rate mode : Constant
    Bit rate : 448 Kbps
    Channel(s) : 6 channels
    Channel positions : Front: L C R, Side: L R, LFE
    Sampling rate : 48.0 KHz
    Frame rate : 31.250 fps (1536 spf)
    Compression mode : Lossy
    Stream size : 269 MiB (4%)
    Title : Многоголосый
    Language : Russian
    Default : No
    Forced : No
    Audio #4
    ID : 5
    Format : DTS
    Format/Info : Digital Theater Systems
    Mode : 16
    Format settings, Endianness : Big
    Codec ID : A_DTS
    Duration : 1h 23mn
    Bit rate mode : Constant
    Bit rate : 755 Kbps
    Channel(s) : 6 channels
    Channel positions : Front: L C R, Side: L R, LFE
    Sampling rate : 48.0 KHz
    Frame rate : 93.750 fps (512 spf)
    Bit depth : 24 bits
    Compression mode : Lossy
    Stream size : 452 MiB (6%)
    Title : Немахов
    Language : Russian
    Default : No
    Forced : No
    Audio #5
    ID : 6
    Format : AC-3
    Format/Info : Audio Coding 3
    Mode extension : CM (complete main)
    Format settings, Endianness : Big
    Codec ID : A_AC3
    Duration : 1h 23mn
    Bit rate mode : Constant
    Bit rate : 192 Kbps
    Channel(s) : 2 channels
    Channel positions : Front: L R
    Sampling rate : 48.0 KHz
    Frame rate : 31.250 fps (1536 spf)
    Compression mode : Lossy
    Stream size : 115 MiB (2%)
    Title : Двухголосый, 1+1
    Language : Ukrainian
    Default : No
    Forced : No
    Audio #6
    ID : 7
    Format : AC-3
    Format/Info : Audio Coding 3
    Mode extension : CM (complete main)
    Format settings, Endianness : Big
    Codec ID : A_AC3
    Duration : 1h 23mn
    Bit rate mode : Constant
    Bit rate : 192 Kbps
    Channel(s) : 2 channels
    Channel positions : Front: L R
    Sampling rate : 48.0 KHz
    Frame rate : 31.250 fps (1536 spf)
    Compression mode : Lossy
    Stream size : 115 MiB (2%)
    Title : Многоголосый, НЛО.TV
    Language : Ukrainian
    Default : No
    Forced : No
    Audio #7
    ID : 8
    Format : DTS
    Format/Info : Digital Theater Systems
    Mode : 16
    Format settings, Endianness : Big
    Codec ID : A_DTS
    Duration : 1h 23mn
    Bit rate mode : Constant
    Bit rate : 1 509 Kbps
    Channel(s) : 6 channels
    Channel positions : Front: L C R, Side: L R, LFE
    Sampling rate : 48.0 KHz
    Frame rate : 93.750 fps (512 spf)
    Bit depth : 16 bits
    Compression mode : Lossy
    Stream size : 905 MiB (12%)
    Language : English
    Default : No
    Forced : No
    Text #1
    ID : 9
    Format : UTF-8
    Codec ID : S_TEXT/UTF8
    Codec ID/Info : UTF-8 Plain Text
    Language : Russian
    Default : No
    Forced : No
    Text #2
    ID : 10
    Format : UTF-8
    Codec ID : S_TEXT/UTF8
    Codec ID/Info : UTF-8 Plain Text
    Title : Киномания
    Language : Russian
    Default : No
    Forced : No
    Text #3
    ID : 11
    Format : UTF-8
    Codec ID : S_TEXT/UTF8
    Codec ID/Info : UTF-8 Plain Text
    Language : English
    Default : No
    Forced : No
    Text #4
    ID : 12
    Format : UTF-8
    Codec ID : S_TEXT/UTF8
    Codec ID/Info : UTF-8 Plain Text
    Title : SDH
    Language : English
    Default : No
    Forced : No
    Menu
    00:00:00.000 : en:time to go (main titles)
    00:04:54.294 : en:never pick up strangers
    00:08:12.075 : en:nice to meet you
    00:12:43.346 : en:a free ride
    00:18:50.663 : en:hell of a story
    00:22:18.955 : en:next victims
    00:25:22.521 : en:hit and run
    00:30:12.227 : en:under arrest
    00:34:18.924 : en:trying to help
    00:40:06.104 : en:third suspect
    00:43:45.290 : en:no way out
    00:48:19.680 : en:armed and dangerous
    00:54:31.218 : en:call for help
    00:58:03.097 : en:making me horny
    01:00:14.861 : en:i want to die
    01:05:12.191 : en:maybe next time
    01:10:32.929 : en:done running
    01:14:09.195 : en:need backup
    01:16:46.135 : en:dead end
    01:18:12.855 : en:end titles

    Source vs Encode




    Скриншоты

    Скачать .torrent

    Скачать торрент-файл бесплатно и на максимальной скорости!

    Как скачивать? · Что такое торрент? · Рейтинг и ограничения

    !ВНИМАНИЕ!
    Сайт не распространяет и не хранит электронные версии произведений, а занимается лишь лишь предоставлением доступа к создаваемому пользователями каталогу ссылок на торрент-файлы, которые содержат только списки хеш-сумм, убедительная просьба с жалобами обращаться напрямую к пользователю. Файлы для обмена на трекере предоставлены пользователями сайта, и администрация не несёт ответственности за их содержание. Просьба не заливать файлы, защищенные авторскими правами, а также файлы нелегального содержания!


    _________________
    [Профиль] [ЛС]
    Показать сообщения:    
    Ответить на тему

    Текущее время: Сегодня, в 06:05

    Часовой пояс: GMT + 2



    Вы не можете начинать темы
    Вы не можете отвечать на сообщения
    Вы не можете редактировать свои сообщения
    Вы не можете удалять свои сообщения
    Вы не можете голосовать в опросах
    Вы не можете прикреплять файлы к сообщениям
    Вы не можете скачивать файлы