BitTorrentTracker PerecTracker.org
BitTorrentTracker PerecTracker.org
    
Регистрация  ·  Вход
 
 · 
Забыли пароль?

  • Мисс Переполох / She\'s Funny That Way (Питер Богданович / Peter Bogdanovich) [2014, США, Германия, комедия, BDRip-AVC] Dub (iTunes) + Sub Rus, Eng + Original Eng

    Ответить на тему
     
    Автор Сообщение

    Light

    Создавать темы 08-Июл-2016 02:57

           

    [Цитировать]

    Мисс Переполох / She's Funny That Way
    Страна: США, Германия
    Жанр: комедия
    Год выпуска: 2014
    Продолжительность: 01:33:39
    Перевод: Профессиональный (дублированный) iTunes
    Cубтитры: Русские, Английские
    Оригинальная аудиодорожка: Английская--Режиссер: Питер Богданович / Peter Bogdanovich--В ролях: Оуэн Уилсон, Имоджен Путс, Кэтрин Хан, Уилл Форте, Рис Иванс, Дженнифер Энистон, Сибилл Шепард, Остин Пендлтон, Джоанна Ламли, Ричард Льюис, Иллиана Даглас, Грейдон Картер, Эрин Хизертон, Мелани Хилл, Джейк Хоффман, Деби Мейзар, Джордж Морфоген, Това Фелдшух, Ана О’Райли....--Описание: На первый взгляд может показаться, что Изабелла — простая девушка по вызову из Бруклина. Но, ворвавшись в тихую и размеренную жизнь бродвейского режиссера Альберта, она буквально перевернет ее вверх дном, станет причиной нескольких скандалов и раскроет все немыслимые семейные тайны. Если вы о ней еще не слышали, тогда она идет к вам!--Доп. информация: | IMDB | КиноПоиск | Сэмпл |

    --Качество видео: BDRip-AVC She's Funny That Way (2014) 1080p BD-Remux Kinozal
    Формат видео: MKV
    Видео: AVC, 1112x600 (1.85:1), 2464 kbps, 23.976 fps, 0.154 bit/pixel
    Аудио 1: AC3 Dolby Digital, 3/2 (L,C,R,l,r) + LFE ch, 48 kHz, 384 kbps
    Аудио 2: AC3 Dolby Digital, 3/2 (L,C,R,l,r) + LFE ch, 48 kHz, 448 kbps
    Формат субтитров: softsub (SRT)
    Скриншоты

    Запасные скриншоты

    MediaInfo

    x264

    raw [info]: 1112x600p 1:1 @ 24000/1001 fps (cfr)
    x264 [info]: using SAR=1/1
    x264 [info]: using cpu capabilities: MMX2 SSE2Fast SSSE3 SSE4.2 AVX
    x264 [info]: profile High, level 4.1
    x264 [info]: frame I:1102 Avg QP:15.87 size: 70465
    x264 [info]: frame P:27355 Avg QP:17.91 size: 27118
    x264 [info]: frame B:105945 Avg QP:20.41 size: 8537
    x264 [info]: consecutive B-frames: 1.1% 0.8% 3.5% 29.7% 20.4% 33.4% 5.4% 2.6% 1.1% 0.7% 0.3% 0.9%
    x264 [info]: mb I I16..4: 12.7% 70.3% 17.0%
    x264 [info]: mb P I16..4: 1.2% 8.2% 1.0% P16..4: 41.5% 20.2% 15.5% 0.5% 0.1% skip:11.7%
    x264 [info]: mb B I16..4: 0.1% 0.6% 0.1% B16..8: 35.2% 9.5% 2.8% direct: 4.2% skip:47.6% L0:43.0% L1:43.8% BI:13.2%
    x264 [info]: 8x8 transform intra:76.9% inter:64.9%
    x264 [info]: coded y,uvDC,uvAC intra: 80.4% 82.7% 69.1% inter: 19.0% 18.2% 4.7%
    x264 [info]: i16 v,h,dc,p: 51% 14% 7% 29%
    x264 [info]: i8 v,h,dc,ddl,ddr,vr,hd,vl,hu: 15% 9% 7% 9% 13% 14% 11% 12% 11%
    x264 [info]: i4 v,h,dc,ddl,ddr,vr,hd,vl,hu: 13% 8% 4% 10% 16% 15% 12% 11% 10%
    x264 [info]: i8c dc,h,v,p: 44% 19% 21% 16%
    x264 [info]: Weighted P-Frames: Y:7.1% UV:6.3%
    x264 [info]: ref P L0: 45.4% 9.2% 17.0% 7.1% 6.1% 4.6% 4.0% 2.2% 2.1% 2.0% 0.2% 0.0%
    x264 [info]: ref B L0: 72.9% 11.0% 5.7% 3.0% 2.8% 1.9% 1.7% 0.7% 0.3%
    x264 [info]: ref B L1: 94.0% 6.0%
    x264 [info]: kb/s:2464.20
    General
    Unique ID : 243005329906718812673038148177942457888 (0xB6D11FC861423E3286B824EEE27AAE20)
    Complete name : She's Funny That Way (2014).mkv
    Format : Matroska
    Format version : Version 4 / Version 2
    File size : 2.16 GiB
    Duration : 1h 33mn
    Overall bit rate : 3 299 Kbps
    Movie name : Мисс Переполох / She's Funny That Way (2014)
    Encoded date : UTC 2016-07-07 14:30:14
    Writing application : mkvmerge v8.1.0 ('Psychedelic Postcard') 64bit
    Writing library : libebml v1.3.1 + libmatroska v1.4.2
    Cover : Yes
    Attachments : cover.jpg
    Video
    ID : 1
    Format : AVC
    Format/Info : Advanced Video Codec
    Format profile : High@L4.1
    Format settings, CABAC : Yes
    Format settings, ReFrames : 10 frames
    Codec ID : V_MPEG4/ISO/AVC
    Duration : 1h 33mn
    Bit rate : 2 464 Kbps
    Width : 1 112 pixels
    Height : 600 pixels
    Display aspect ratio : 1.85:1
    Frame rate mode : Constant
    Frame rate : 23.976 (24000/1001) fps
    Color space : YUV
    Chroma subsampling : 4:2:0
    Bit depth : 8 bits
    Scan type : Progressive
    Bits/(Pixel*Frame) : 0.154
    Stream size : 1.61 GiB (75%)
    Title : She's Funny That Way (2014) By optik.1557
    Writing library : x264 core 148 r2705kMod 3f5ed56
    Encoding settings : cabac=1 / ref=10 / deblock=1:-2:-1 / analyse=0x3:0x133 / me=umh / subme=10 / psy=1 / fade_compensate=0.00 / psy_rd=1.03:0.05 / mixed_ref=1 / me_range=32 / chroma_me=1 / trellis=2 / 8x8dct=1 / cqm=0 / deadzone=21,11 / fast_pskip=0 / chroma_qp_offset=-3 / threads=6 / lookahead_threads=1 / sliced_threads=0 / nr=0 / decimate=1 / interlaced=0 / bluray_compat=0 / constrained_intra=0 / fgo=0 / bframes=11 / b_pyramid=2 / b_adapt=2 / b_bias=0 / direct=1 / weightb=1 / open_gop=0 / weightp=2 / keyint=250 / keyint_min=23 / scenecut=40 / intra_refresh=0 / rc_lookahead=60 / rc=crf / mbtree=0 / crf=18.4000 / qcomp=0.60 / qpmin=0 / qpmax=69 / qpstep=4 / vbv_maxrate=50000 / vbv_bufsize=62500 / crf_max=0.0 / nal_hrd=none / filler=0 / ip_ratio=1.40 / pb_ratio=1.30 / aq=2:0.90
    Language : English
    Default : Yes
    Forced : No
    Color range : Limited
    Color primaries : BT.709
    Transfer characteristics : BT.709
    Matrix coefficients : BT.709
    Audio #1
    ID : 2
    Format : AC-3
    Format/Info : Audio Coding 3
    Mode extension : CM (complete main)
    Format settings, Endianness : Big
    Codec ID : A_AC3
    Duration : 1h 33mn
    Bit rate mode : Constant
    Bit rate : 384 Kbps
    Channel(s) : 6 channels
    Channel positions : Front: L C R, Side: L R, LFE
    Sampling rate : 48.0 KHz
    Frame rate : 31.250 fps (1536 spf)
    Compression mode : Lossy
    Stream size : 257 MiB (12%)
    Title : Дубляж. iTunes
    Language : Russian
    Default : Yes
    Forced : No
    Audio #2
    ID : 3
    Format : AC-3
    Format/Info : Audio Coding 3
    Mode extension : CM (complete main)
    Format settings, Endianness : Big
    Codec ID : A_AC3
    Duration : 1h 33mn
    Bit rate mode : Constant
    Bit rate : 448 Kbps
    Channel(s) : 6 channels
    Channel positions : Front: L C R, Side: L R, LFE
    Sampling rate : 48.0 KHz
    Frame rate : 31.250 fps (1536 spf)
    Compression mode : Lossy
    Stream size : 300 MiB (14%)
    Title : Origina
    Language : English
    Default : No
    Forced : No
    Text #1
    ID : 4
    Format : UTF-8
    Codec ID : S_TEXT/UTF8
    Codec ID/Info : UTF-8 Plain Text
    Duration : 1h 26mn
    Bit rate : 167 bps
    Count of elements : 1815
    Stream size : 107 KiB (0%)
    Language : Russian
    Default : No
    Forced : No
    Text #2
    ID : 5
    Format : UTF-8
    Codec ID : S_TEXT/UTF8
    Codec ID/Info : UTF-8 Plain Text
    Duration : 1h 26mn
    Bit rate : 102 bps
    Count of elements : 1817
    Stream size : 64.5 KiB (0%)
    Language : English
    Default : No
    Forced : No
    Menu
    00:00:00.000 : en:00:00:00.000
    00:10:08.358 : en:00:10:08.358
    00:21:49.433 : en:00:21:49.433
    00:27:55.215 : en:00:27:55.215
    00:35:10.358 : en:00:35:10.358
    00:40:07.196 : en:00:40:07.196
    00:48:39.959 : en:00:48:39.959
    00:57:48.131 : en:00:57:48.131
    01:06:56.179 : en:01:06:56.179
    01:12:26.926 : en:01:12:26.926
    01:20:50.387 : en:01:20:50.387
    01:25:34.546 : en:01:25:34.546
    Скачать .torrent

    Скачать торрент-файл бесплатно и на максимальной скорости!

    Как скачивать? · Что такое торрент? · Рейтинг и ограничения

    !ВНИМАНИЕ!
    Сайт не распространяет и не хранит электронные версии произведений, а занимается лишь лишь предоставлением доступа к создаваемому пользователями каталогу ссылок на торрент-файлы, которые содержат только списки хеш-сумм, убедительная просьба с жалобами обращаться напрямую к пользователю. Файлы для обмена на трекере предоставлены пользователями сайта, и администрация не несёт ответственности за их содержание. Просьба не заливать файлы, защищенные авторскими правами, а также файлы нелегального содержания!


    _________________
    [Профиль] [ЛС]
    Показать сообщения:    
    Ответить на тему

    Текущее время: Сегодня, в 16:22

    Часовой пояс: GMT + 2



    Вы не можете начинать темы
    Вы не можете отвечать на сообщения
    Вы не можете редактировать свои сообщения
    Вы не можете удалять свои сообщения
    Вы не можете голосовать в опросах
    Вы не можете прикреплять файлы к сообщениям
    Вы не можете скачивать файлы