BitTorrentTracker PerecTracker.org
BitTorrentTracker PerecTracker.org
    
Регистрация  ·  Вход
 
 · 
Забыли пароль?

  • Да здравствует Цезарь! / Hail, Caesar! (Итан Коэн / Ethan Coen, Джоэл Коэн / Joel Coen) [2016, Великобритания, США, Япония, комедия, BDRemux 1080p] Dub + VO (Дмитрий Есарев) + Sub Rus, Eng + Original Eng

    Ответить на тему
     
    Автор Сообщение

    Light

    Создавать темы 07-Июл-2016 18:33

           

    [Цитировать]

    -Да здравствует Цезарь! / Hail, Caesar!-Страна: Великобритания, США, Япония
    Жанр: комедия
    Год выпуска: 2016
    Продолжительность: 01:46:05-Перевод: Профессиональный (дублированный) Blu-Ray CEE
    Перевод 2: Одноголосый закадровый Дмитрий Есарев
    Cубтитры: русские (форсированные и полные), английские
    Оригинальная аудиодорожка: английский-Режиссер: Итан Коэн / Ethan Coen, Джоэл Коэн / Joel Coen
    В ролях: Джош Бролин, Джордж Клуни, Олден Эренрайк, Рэйф Файнс, Скарлетт Йоханссон, Тильда Суинтон, Фрэнсис МакДорманд, Ченнинг Татум, Джона Хилл, Вероника Осорио
    Описание: Добро пожаловать в Голливуд – империю блеска, роскоши и порока. Здесь обитают кумиры миллионов. Что ни день – пиршество для светских хроникеров. И вот однажды исчезает исполнитель главной роли в фильме «Да здравствует Цезарь!». Ни жена, ни многочисленные любовницы не знают, где он. И теперь продюсера студии ждет веселый денек, ведь он должен найти звезду раньше репортеров…-Сэмпл-Тип релиза: BDRemux 1080p
    Контейнер: MKV
    Видео: MPEG-4 AVC Video 34585 kbps 1080p / 23.976 fps / 16:9 / High Profile 4.1
    Аудио: Russian / Dolby Digital Audio / 5.1 / 48 kHz / 448 kbps
    Аудио 2: Russian DTS-HD Master Audio 5.1 / 48 kHz / 3614 kbps / 24-bit (DTS Core: 5.1 / 48 kHz / 1509 kbps / 24-bit)
    Аудио 3: English DTS-HD Master Audio 5.1 / 48 kHz / 3604 kbps / 24-bit (DTS Core: 5.1 / 48 kHz / 1509 kbps / 24-bit)
    Формат субтитров: softsub (SRT)

    MI

    GeneralUnique ID : 190312601086032446075494466758227925577 (0x8F2CDFAC487851949D3D376BCA761A49)Complete name : R:\Фильмы\Братья Коэн\Да здравствует Цезарь! (2016. Hail, Caesar!).mkvFormat : MatroskaFormat version : Version 4 / Version 2File size : 31.3 GiBDuration : 1h 46mnOverall bit rate mode : VariableOverall bit rate : 42.2 MbpsMovie name : Release for RuTrackerEncoded date : UTC 2016-07-06 19:23:15Writing application : mkvmerge v9.0.1 ('Obstacles') 64bitWriting library : libebml v1.3.3 + libmatroska v1.4.4Cover : YesAttachments : cover.jpg
    VideoID : 1Format : AVCFormat/Info : Advanced Video CodecFormat profile : High@L4.1Format settings, CABAC : YesFormat settings, ReFrames : 4 framesCodec ID : V_MPEG4/ISO/AVCDuration : 1h 46mnBit rate mode : VariableBit rate : 34.6 MbpsMaximum bit rate : 36.4 MbpsWidth : 1 920 pixelsHeight : 1 080 pixelsDisplay aspect ratio : 16:9Frame rate mode : ConstantFrame rate : 23.976 (24000/1001) fpsColor space : YUVChroma subsampling : 4:2:0Bit depth : 8 bitsScan type : ProgressiveBits/(Pixel*Frame) : 0.695Stream size : 25.6 GiB (82%)Language : EnglishDefault : YesForced : No
    Audio #1ID : 2Format : AC-3Format/Info : Audio Coding 3Mode extension : CM (complete main)Format settings, Endianness : BigCodec ID : A_AC3Duration : 1h 46mnBit rate mode : ConstantBit rate : 448 KbpsChannel(s) : 6 channelsChannel positions : Front: L C R, Side: L R, LFESampling rate : 48.0 KHzFrame rate : 31.250 fps (1536 spf)Compression mode : LossyStream size : 340 MiB (1%)Title : ДубляжLanguage : RussianDefault : YesForced : No
    Audio #2ID : 3Format : DTSFormat/Info : Digital Theater SystemsFormat profile : MA / CoreMode : 16Format settings, Endianness : BigCodec ID : A_DTSDuration : 1h 46mnBit rate mode : Variable / ConstantBit rate : 3 614 Kbps / 1 509 KbpsChannel(s) : 6 channelsChannel positions : Front: L C R, Side: L R, LFESampling rate : 48.0 KHzFrame rate : 93.750 fps (512 spf)Bit depth : 24 bitsCompression mode : Lossless / LossyStream size : 2.68 GiB (9%)Title : Дмитрий ЕсаревLanguage : RussianDefault : NoForced : No
    Audio #3ID : 4Format : DTSFormat/Info : Digital Theater SystemsFormat profile : MA / CoreMode : 16Format settings, Endianness : BigCodec ID : A_DTSDuration : 1h 46mnBit rate mode : Variable / ConstantBit rate : 3 604 Kbps / 1 509 KbpsChannel(s) : 6 channelsChannel positions : Front: L C R, Side: L R, LFESampling rate : 48.0 KHzFrame rate : 93.750 fps (512 spf)Bit depth : 24 bitsCompression mode : Lossless / LossyStream size : 2.67 GiB (9%)Language : EnglishDefault : NoForced : No
    Text #1ID : 5Format : UTF-8Codec ID : S_TEXT/UTF8Codec ID/Info : UTF-8 Plain TextDuration : 1h 26mnBit rate : 1 bpsCount of elements : 16Stream size : 695 Bytes (0%)Title : forcedLanguage : RussianDefault : YesForced : Yes
    Text #2ID : 6Format : UTF-8Codec ID : S_TEXT/UTF8Codec ID/Info : UTF-8 Plain TextDuration : 1h 38mnBit rate : 121 bpsCount of elements : 1598Stream size : 87.6 KiB (0%)Title : fullLanguage : RussianDefault : NoForced : No
    Text #3ID : 7Format : UTF-8Codec ID : S_TEXT/UTF8Codec ID/Info : UTF-8 Plain TextDuration : 1h 38mnBit rate : 78 bpsCount of elements : 1793Stream size : 56.7 KiB (0%)Language : EnglishDefault : NoForced : No
    Text #4ID : 8Format : UTF-8Codec ID : S_TEXT/UTF8Codec ID/Info : UTF-8 Plain TextDuration : 1h 38mnBit rate : 88 bpsCount of elements : 1912Stream size : 63.8 KiB (0%)Title : SDHLanguage : EnglishDefault : NoForced : No
    Text #5ID : 9Format : UTF-8Codec ID : S_TEXT/UTF8Codec ID/Info : UTF-8 Plain TextDuration : 1h 38mnBit rate : 100 bpsCount of elements : 1912Stream size : 72.5 KiB (0%)Title : SDH COLOREDLanguage : EnglishDefault : NoForced : No
    Menu00:00:00.000 : en:Chapter 100:03:59.322 : en:Chapter 200:09:38.369 : en:Chapter 300:12:58.736 : en:Chapter 400:17:34.178 : en:Chapter 500:22:29.223 : en:Chapter 600:29:55.961 : en:Chapter 700:35:37.427 : en:Chapter 800:41:49.090 : en:Chapter 900:47:09.618 : en:Chapter 1000:50:40.746 : en:Chapter 1100:57:25.108 : en:Chapter 1201:01:17.424 : en:Chapter 1301:07:21.913 : en:Chapter 1401:14:02.229 : en:Chapter 1501:17:41.365 : en:Chapter 1601:22:38.704 : en:Chapter 1701:28:54.412 : en:Chapter 1801:33:50.959 : en:Chapter 1901:39:26.419 : en:Chapter 20
    Скриншоты

    Зеркало


    Цитата:
    Цитата:

    • Перевод Есаревf доступен благодаря следующим пользователям "Переулка Переводмана": igrok2012, J. Green, nortonn, napaHouk, Lecter1975, ana2363, Wa1ker, Shrooms, mv73, kidman644, shagrath88, Drowse Reloaded, shandorra, Loki1982 , работа со звуком - Переводман.
    Скачать .torrent

    Скачать торрент-файл бесплатно и на максимальной скорости!

    Как скачивать? · Что такое торрент? · Рейтинг и ограничения

    !ВНИМАНИЕ!
    Сайт не распространяет и не хранит электронные версии произведений, а занимается лишь лишь предоставлением доступа к создаваемому пользователями каталогу ссылок на торрент-файлы, которые содержат только списки хеш-сумм, убедительная просьба с жалобами обращаться напрямую к пользователю. Файлы для обмена на трекере предоставлены пользователями сайта, и администрация не несёт ответственности за их содержание. Просьба не заливать файлы, защищенные авторскими правами, а также файлы нелегального содержания!


    _________________
    [Профиль] [ЛС]
    Показать сообщения:    
    Ответить на тему

    Текущее время: Сегодня, в 02:03

    Часовой пояс: GMT + 2



    Вы не можете начинать темы
    Вы не можете отвечать на сообщения
    Вы не можете редактировать свои сообщения
    Вы не можете удалять свои сообщения
    Вы не можете голосовать в опросах
    Вы не можете прикреплять файлы к сообщениям
    Вы не можете скачивать файлы