BitTorrentTracker PerecTracker.org
BitTorrentTracker PerecTracker.org
    
Регистрация  ·  Вход
 
 · 
Забыли пароль?

  • Неестественный повод / Clean Break / Unnatural Causes (Роберт Маленфант / Robert Malenfant) [2008, США, драма, триллер, WEB-DL 720p] MVO + DVO + Sub Eng + Original Eng

    Ответить на тему
     
    Автор Сообщение

    Light

    Создавать темы 07-Июл-2016 14:21

           

    [Цитировать]

    Неестественный повод / Clean Break / Unnatural Causes
    -Страна: США
    Жанр: Драма, триллер
    Год выпуска: 2008
    Продолжительность: 01:28:50-Перевод 1: Профессиональный (многоголосый, закадровый) 1 канал
    Перевод 2: Профессиональный (двухголосый закадровый) студия Elrom
    Cубтитры: английские
    Оригинальная аудиодорожка: английский-Режиссер: Роберт Маленфант / Robert Malenfant-В ролях: Тара Рейд, Колм Мини, Франческ Гарридо, Лорена Берналь, Роджер Дельмон, Сью Флэк, Энгус МакФадьен-Описание:
    Ревнивый муж, продажный полицейский и храбрая женщина. Сложная история, полная сюрпризов, в которой Джулия оказывается вовлеченной в борьбу за свою жизнь. Когда ее муж начинает подозревать ее в измене он начинает сходить с ума и допускает, чтобы ее убили. Но Джулии удается симулировать свое убийство и через некоторое время она появляется, но многие оказываются заинтересованы в том, чтобы она была мертва...-Сэмпл: Скачать-Тип релиза: WEB-DL 720p
    Контейнер: MKV-Видео: 960x718 (16:9); 4 071 Kbps; 25.000 fps; 0.185 bpp
    Аудио 1: Russian; AC3; 48.0 KHz; 2ch; 192 Kbps MVO
    Аудио 2: Russian; AC3; 48.0 KHz; 2ch; 192 Kbps DVO
    Аудио 3: English; AAC; 48.0 KHz; 2ch; ~160 Kbps

    MediaInfo

    Format : Matroska
    Format version : Version 4 / Version 2
    File size : 2.86 GiB
    Duration : 1h 28mn
    Overall bit rate : 4 603 Kbps
    Encoded date : UTC 2016-06-02 10:01:26
    Writing application : mkvmerge v8.3.0 ('Over the Horizon') 64bit
    Writing library : libebml v1.3.1 + libmatroska v1.4.2
    Attachements : poster.jpg
    DURATION : 01:22:31.220000000
    NUMBER_OF_FRAMES : 908
    NUMBER_OF_BYTES : 29990
    _STATISTICS_WRITING_APP : mkvmerge v8.3.0 ('Over the Horizon') 64bit
    _STATISTICS_WRITING_DATE_UT : 2016-06-02 10:01:26
    _STATISTICS_TAGS : BPS DURATION NUMBER_OF_FRAMES NUMBER_OF_BYTES
    Video
    ID : 1
    Format : AVC
    Format/Info : Advanced Video Codec
    Format profile : Main@L3.1
    Format settings, CABAC : No
    Format settings, ReFrames : 2 frames
    Codec ID : V_MPEG4/ISO/AVC
    Duration : 1h 28mn
    Width : 960 pixels
    Height : 718 pixels
    Display aspect ratio : 16:9
    Frame rate mode : Constant
    Frame rate : 25.000 fps
    Color space : YUV
    Chroma subsampling : 4:2:0
    Bit depth : 8 bits
    Scan type : Progressive
    Language : English
    Default : Yes
    Forced : No
    Color range : Limited
    Color primaries : BT.709
    Transfer characteristics : BT.709
    Matrix coefficients : BT.709
    Audio #1
    ID : 2
    Format : AC-3
    Format/Info : Audio Coding 3
    Mode extension : CM (complete main)
    Format settings, Endianness : Big
    Codec ID : A_AC3
    Duration : 1h 28mn
    Bit rate mode : Constant
    Bit rate : 192 Kbps
    Channel(s) : 2 channels
    Channel positions : Front: L R
    Sampling rate : 48.0 KHz
    Compression mode : Lossy
    Stream size : 122 MiB (4%)
    Title : MVO ОРТ
    Language : Russian
    Default : Yes
    Forced : No
    Audio #2
    ID : 3
    Format : AC-3
    Format/Info : Audio Coding 3
    Mode extension : CM (complete main)
    Format settings, Endianness : Big
    Codec ID : A_AC3
    Duration : 1h 28mn
    Bit rate mode : Constant
    Bit rate : 192 Kbps
    Channel(s) : 2 channels
    Channel positions : Front: L R
    Sampling rate : 48.0 KHz
    Compression mode : Lossy
    Stream size : 122 MiB (4%)
    Title : DVO Elrom
    Language : Russian
    Default : No
    Forced : No
    Audio #3
    ID : 4
    Format : AAC
    Format/Info : Advanced Audio Codec
    Format profile : LC
    Codec ID : A_AAC
    Duration : 1h 28mn
    Channel(s) : 2 channels
    Channel positions : Front: L R
    Sampling rate : 48.0 KHz
    Compression mode : Lossy
    Language : English
    Default : No
    Forced : No
    Text
    ID : 5
    Format : UTF-8
    Codec ID : S_TEXT/UTF8
    Codec ID/Info : UTF-8 Plain Text
    Language : English
    Default : No
    Forced : No
    Menu
    00:00:00.000 : en:Chapter 1
    00:08:34.000 : en:Chapter 2
    00:14:20.000 : en:Chapter 3
    00:21:22.000 : en:Chapter 4
    00:28:51.000 : en:Chapter 5
    00:36:23.000 : en:Chapter 6
    00:42:31.000 : en:Chapter 7
    00:50:22.000 : en:Chapter 8
    00:56:34.000 : en:Chapter 9
    01:03:36.000 : en:Chapter 10
    01:11:23.000 : en:Chapter 11
    01:18:54.000 : en:Chapter 12

    Скриншоты

    Скачать .torrent

    Скачать торрент-файл бесплатно и на максимальной скорости!

    Как скачивать? · Что такое торрент? · Рейтинг и ограничения

    !ВНИМАНИЕ!
    Сайт не распространяет и не хранит электронные версии произведений, а занимается лишь лишь предоставлением доступа к создаваемому пользователями каталогу ссылок на торрент-файлы, которые содержат только списки хеш-сумм, убедительная просьба с жалобами обращаться напрямую к пользователю. Файлы для обмена на трекере предоставлены пользователями сайта, и администрация не несёт ответственности за их содержание. Просьба не заливать файлы, защищенные авторскими правами, а также файлы нелегального содержания!


    _________________
    [Профиль] [ЛС]
    Показать сообщения:    
    Ответить на тему

    Текущее время: Сегодня, в 05:23

    Часовой пояс: GMT + 2



    Вы не можете начинать темы
    Вы не можете отвечать на сообщения
    Вы не можете редактировать свои сообщения
    Вы не можете удалять свои сообщения
    Вы не можете голосовать в опросах
    Вы не можете прикреплять файлы к сообщениям
    Вы не можете скачивать файлы