BitTorrentTracker PerecTracker.org
BitTorrentTracker PerecTracker.org
    
Регистрация  ·  Вход
 
 · 
Забыли пароль?

  • Бэтмен против Супермена: На заре справедливости / Batman v Superman: Dawn of Justice (Зак Снайдер / Zack Snyder) [2016, США, фантастика, фэнтези, боевик, приключения, BDRip 720p] [Расширенная версия] Dub (iTunes) + Sub Rus, Eng + Original Eng

    Ответить на тему
     
    Автор Сообщение

    Light

    Создавать темы 07-Июл-2016 14:21

           

    [Цитировать]

    Бэтмен против Супермена: На заре справедливости / Batman v Superman: Dawn of Justice / Расширенная версия
    Страна: США
    Студия: Atlas Entertainment, DC Comics, DC Entertainment, Warner Bros. Pictures
    Жанр: Фантастика, фэнтези, боевик, приключения
    Год выпуска: 2016
    Продолжительность: 03:02:34
    Перевод: Профессиональный (дублированный) iTunes
    Cубтитры: Rus, Eng
    Оригинальная аудиодорожка: английский
    Режиссер: Зак Снайдер / Zack Snyder
    В ролях: Генри Кавилл, Бен Аффлек, Галь Гадот, Эми Адамс, Джесси Айзенберг, Джереми Айронс, Дайан Лэйн, Лоренс Фишбёрн, Холли Хантер, Скут МакНэйри, Каллэн Мулвей, Тао Окамото, Брэндон Спинк, Лорен Коэн, Алан Д. Первин, Марк Эдвард Тейлор, Хью Магвайр, Майкл Шеннон, Ханна Дворкин, Тиффани Л. Эддисон
    Описание: Битва между Кал-Элом и генералом Зодом наносит множество разрушений Метрополису и соседнему Готэм Сити. Башня Уэйн-тауэр - уничтожена вместе с сотнями невинных людей. Это становится началом конфликта между Последним Сыном Криптона и Темным Рыцарем Готэма, богом и человеком. Тем временем, сумасшедший гений Лекс Лютор готовит оружие Судного дня, способное уничтожить не только богоподобного Супермена, но и все человечество.
    Примечание: Расширенные места без русского озвучивания переведены русскими субтитрами.

    Тип релиза: BDRip 720p
    Контейнер: MKV
    Видео: MPEG-4 AVC, 7535 Кбит/с, 1280x534, 23,976 fps
    Аудио: Rus, AC3, 384 kb/s (6 ch), 48 kHz
    Аудио 2: Eng, AC3, 640 kb/s (6 ch), 48 kHz
    Формат субтитров: softsub (SRT)

    MediaInfo

    x264 [info]: frame I:1817 Avg QP:14.28 size:104327
    x264 [info]: frame P:60739 Avg QP:15.78 size: 60895
    x264 [info]: frame B:200070 Avg QP:18.15 size: 33305
    Format : Matroska
    Format version : Version 4 / Version 2
    File size : 11.1 GiB
    Duration : 3h 2mn
    Overall bit rate : 8 733 Kbps
    Movie name : Бэтмен против Супермена: На заре справедливости. (Tonik)
    Encoded date : UTC 2016-07-06 13:56:40
    Writing application : mkvmerge v7.1.0 ('Good Love') 64bit built on Jul 27 2014 13:06:55
    Writing library : libebml v1.3.0 + libmatroska v1.4.1
    _STATISTICS_WRITING_APP : mkvmerge v7.1.0 ('Good Love') 64bit built on Jul 27 2014 13:06:55
    _STATISTICS_WRITING_DATE_UTC : 2016-07-06 13:56:40
    _STATISTICS_TAGS : BPS DURATION NUMBER_OF_FRAMES NUMBER_OF_BYTES
    DURATION : 03:02:33.693000000
    NUMBER_OF_FRAMES : 262626
    NUMBER_OF_BYTES : 10551601137
    Video
    ID : 1
    Format : AVC
    Format/Info : Advanced Video Codec
    Format profile : High@L4.1
    Format settings, CABAC : Yes
    Format settings, ReFrames : 12 frames
    Codec ID : V_MPEG4/ISO/AVC
    Bit rate : 7 535 Kbps
    Width : 1 280 pixels
    Height : 534 pixels
    Display aspect ratio : 2.40:1
    Frame rate mode : Variable
    Original frame rate : 23.976 fps
    Color space : YUV
    Chroma subsampling : 4:2:0
    Bit depth : 8 bits
    Scan type : Progressive
    Writing library : x264 core 148 r2638 7599210
    Encoding settings : cabac=1 / ref=12 / deblock=1:-3:-3 / analyse=0x3:0x133 / me=tesa / subme=11 / psy=1 / psy_rd=1.00:0.00 / mixed_ref=1 / me_range=24 / chroma_me=1 / trellis=2 / 8x8dct=1 / cqm=0 / deadzone=21,11 / fast_pskip=0 / chroma_qp_offset=-2 / threads=12 / lookahead_threads=3 / sliced_threads=0 / nr=0 / decimate=1 / interlaced=0 / bluray_compat=0 / constrained_intra=0 / bframes=10 / b_pyramid=2 / b_adapt=2 / b_bias=0 / direct=3 / weightb=1 / open_gop=0 / weightp=2 / keyint=240 / keyint_min=23 / scenecut=40 / intra_refresh=0 / rc_lookahead=60 / rc=crf / mbtree=0 / crf=16.6 / qcomp=0.73 / qpmin=0 / qpmax=69 / qpstep=4 / vbv_maxrate=62500 / vbv_bufsize=78125 / crf_max=0.0 / nal_hrd=none / filler=0 / ip_ratio=1.36 / pb_ratio=1.26 / aq=1:0.80
    Language : English
    Default : Yes
    Forced : No
    Audio #1
    ID : 2
    Format : AC-3
    Format/Info : Audio Coding 3
    Mode extension : CM (complete main)
    Format settings, Endianness : Big
    Codec ID : A_AC3
    Duration : 3h 2mn
    Bit rate mode : Constant
    Bit rate : 384 Kbps
    Channel(s) : 6 channels
    Channel positions : Front: L C R, Side: L R, LFE
    Sampling rate : 48.0 KHz
    Bit depth : 16 bits
    Compression mode : Lossy
    Stream size : 501 MiB (4%)
    Title : iTunes
    Language : Russian
    Default : Yes
    Forced : No
    Audio #2
    ID : 3
    Format : AC-3
    Format/Info : Audio Coding 3
    Mode extension : CM (complete main)
    Format settings, Endianness : Big
    Codec ID : A_AC3
    Duration : 3h 2mn
    Bit rate mode : Constant
    Bit rate : 640 Kbps
    Channel(s) : 6 channels
    Channel positions : Front: L C R, Side: L R, LFE
    Sampling rate : 48.0 KHz
    Bit depth : 16 bits
    Compression mode : Lossy
    Stream size : 836 MiB (7%)
    Language : English
    Default : No
    Forced : No
    Text #1
    ID : 4
    Format : UTF-8
    Codec ID : S_TEXT/UTF8
    Codec ID/Info : UTF-8 Plain Text
    Title : Forced
    Language : Russian
    Default : Yes
    Forced : No
    Text #2
    ID : 5
    Format : UTF-8
    Codec ID : S_TEXT/UTF8
    Codec ID/Info : UTF-8 Plain Text
    Title : [NotaBenoid]
    Language : Russian
    Default : No
    Forced : No
    Text #3
    ID : 6
    Format : UTF-8
    Codec ID : S_TEXT/UTF8
    Codec ID/Info : UTF-8 Plain Text
    Language : English
    Default : No
    Forced : No
    Text #4
    ID : 7
    Format : UTF-8
    Codec ID : S_TEXT/UTF8
    Codec ID/Info : UTF-8 Plain Text
    Title : SDH
    Language : English
    Default : No
    Forced : No
    Menu
    00:00:00.000 : en:00:00:00.000
    00:10:10.652 : en:00:10:10.652
    00:27:00.661 : en:00:27:00.661
    00:37:49.225 : en:00:37:49.225
    00:46:54.520 : en:00:46:54.520
    01:02:04.971 : en:01:02:04.971
    01:14:10.613 : en:01:14:10.613
    01:28:07.115 : en:01:28:07.115
    01:41:46.642 : en:01:41:46.642
    01:53:52.617 : en:01:53:52.617
    02:02:58.079 : en:02:02:58.079
    02:15:04.054 : en:02:15:04.054
    02:27:55.075 : en:02:27:55.075
    02:36:51.444 : en:02:36:51.444
    02:48:27.514 : en:02:48:27.514
    02:54:43.765 : en:02:54:43.765

    Скриншоты

    Скачать .torrent

    Скачать торрент-файл бесплатно и на максимальной скорости!

    Как скачивать? · Что такое торрент? · Рейтинг и ограничения

    !ВНИМАНИЕ!
    Сайт не распространяет и не хранит электронные версии произведений, а занимается лишь лишь предоставлением доступа к создаваемому пользователями каталогу ссылок на торрент-файлы, которые содержат только списки хеш-сумм, убедительная просьба с жалобами обращаться напрямую к пользователю. Файлы для обмена на трекере предоставлены пользователями сайта, и администрация не несёт ответственности за их содержание. Просьба не заливать файлы, защищенные авторскими правами, а также файлы нелегального содержания!


    _________________
    [Профиль] [ЛС]
    Показать сообщения:    
    Ответить на тему

    Текущее время: Сегодня, в 10:32

    Часовой пояс: GMT + 2



    Вы не можете начинать темы
    Вы не можете отвечать на сообщения
    Вы не можете редактировать свои сообщения
    Вы не можете удалять свои сообщения
    Вы не можете голосовать в опросах
    Вы не можете прикреплять файлы к сообщениям
    Вы не можете скачивать файлы