BitTorrentTracker PerecTracker.org
BitTorrentTracker PerecTracker.org
    
Регистрация  ·  Вход
 
 · 
Забыли пароль?

  • Любовь не по размеру / Un homme à la hauteur (Лоран Тирар / Laurent Tirard) [2016, Франция, Комедия, WEB-DLRip] Dub (iTunes)

    Ответить на тему
     
    Автор Сообщение

    rechyn

    Создавать темы 07-Июл-2016 14:21

           

    [Цитировать]

    Любовь не по размеру / Un homme à la hauteur-Год выхода: 2016
    Страна: Франция / Canal+ [fr], Gaumont
    Жанр: комедия
    Продолжительность: 01:34:00
    Перевод: Профессиональный (полное дублирование)
    Субтитры: нет-Режиссер:
    Лоран Тирар / Laurent Tirard-В ролях:
    Жан Дюжарден, Виржини Эфира, Седрик Кан, Стефани Папаниан, Сезар Домбой, Эдмон Франчи, Мануэлль Гайар, Бруно Гомила, Камилль Дамур, Франсуа-Доминик Блен-О фильме:
    Потерянный мобильник оборачивается для Дианы знакомством с поистине невероятным человеком по имени Александр. Он умен, неутомим и чертовски обаятелен. У него замечательное чувство юмора и, кажется, нет недостатков. Кроме одного… Его рост — чуть больше метра. Это небольшое препятствие оказывается источником огромных проблем и множества неудобных и смешных ситуаций для Дианы. Но настоящая любовь может победить всё, если, конечно, это очень большая любовь.-Релиз групп
    | | IMDB | [url=hhttp://www.kinopoisk.ru/film/915039/]КиноПоиск[/url] | Сэмпл |-Качество: WEB-DLRip [UN_HOMME_WEB_DL_1080p-BLUEBIRD]
    Формат: AVI
    Видео: 720x304 (2.37:1), 25 fps, XviD build 67 ~1824 kbps avg, 0.33 bit/pixel
    Аудио: 48 kHz, AC3 Dolby Digital, 3/2 (L,C,R,l,r) + LFE ch, ~384 kbps - iTunes Russia-

    Скриншоты

    -

    MediaInfo

    Общее
    Полное имя                               : D:Lubov`_ne_po_razmeru_2016_WEB-DLRip_by_Dalemake.avi
    Формат                                   : AVI
    Формат/Информация                        : Audio Video Interleave
    Размер файла                             : 1,46 Гбайт
    Продолжительность                        : 1 ч. 34 м.
    Общий поток                              : 2219 Кбит/сек
    Программа кодирования                    : VirtualDubMod 1.5.10.3 | www.virtualdub-fr.org || (build 2550/release)
    Библиотека кодирования                   : VirtualDubMod build 2550/release
    Видео
    Идентификатор                            : 0
    Формат                                   : MPEG-4 Visual
    Профиль формата                          : Advanced Simple@L5
    Параметр BVOP формата                    : 1
    Параметр QPel формата                    : Нет
    Параметр GMC формата                     : Без точки перехода
    Параметр матрицы формата                 : Выборочная
    Идентификатор кодека                     : XVID
    Идентификатор кодека/Подсказка           : XviD
    Продолжительность                        : 1 ч. 34 м.
    Битрейт                                  : 1825 Кбит/сек
    Ширина                                   : 720 пикселей
    Высота                                   : 304 пикселя
    Соотношение сторон                       : 2,35:1
    Частота кадров                           : 25,000 кадров/сек
    Цветовое пространство                    : YUV
    Субдискретизация насыщенности            : 4:2:0
    Битовая глубина                          : 8 бит
    Тип развёртки                            : Прогрессивная
    Метод сжатия                             : С потерями
    Бит/(Пиксели*Кадры)                      : 0.334
    Размер потока                            : 1,20 Гбайт (82%)
    Библиотека кодирования                   : XviD 67
    Аудио
    Идентификатор                            : 1
    Формат                                   : AC-3
    Формат/Информация                        : Audio Coding 3
    Расширение режима                        : CM (complete main)
    Параметр Endianness формата              : Big
    Идентификатор кодека                     : 2000
    Продолжительность                        : 1 ч. 34 м.
    Вид битрейта                             : Постоянный
    Битрейт                                  : 384 Кбит/сек
    Каналы                                   : 6 каналов
    Расположение каналов                     : Front: L C R, Side: L R, LFE
    Частота                                  : 48,0 КГц
    Битовая глубина                          : 16 бит
    Метод сжатия                             : С потерями
    Размер потока                            : 258 Мбайт (17%)
    Выравнивание                             : Разделение по промежуткам
    Продолжительность промежутка             : 40  мс. (1,00 видеокадр)
    Время предзагрузки промежутка            : 500  мс.
    -
    Скачать .torrent

    Скачать торрент-файл бесплатно и на максимальной скорости!

    Как скачивать? · Что такое торрент? · Рейтинг и ограничения

    !ВНИМАНИЕ!
    Сайт не распространяет и не хранит электронные версии произведений, а занимается лишь лишь предоставлением доступа к создаваемому пользователями каталогу ссылок на торрент-файлы, которые содержат только списки хеш-сумм, убедительная просьба с жалобами обращаться напрямую к пользователю. Файлы для обмена на трекере предоставлены пользователями сайта, и администрация не несёт ответственности за их содержание. Просьба не заливать файлы, защищенные авторскими правами, а также файлы нелегального содержания!


    _________________
    [Профиль] [ЛС]
    Показать сообщения:    
    Ответить на тему

    Текущее время: Сегодня, в 23:25

    Часовой пояс: GMT + 2



    Вы не можете начинать темы
    Вы не можете отвечать на сообщения
    Вы не можете редактировать свои сообщения
    Вы не можете удалять свои сообщения
    Вы не можете голосовать в опросах
    Вы не можете прикреплять файлы к сообщениям
    Вы не можете скачивать файлы