Register  ·  Log in
Forgot password?

  • Пара в Холе / Couple in a Hole (Том Гинс / Tom Geens) [2015, Великобритания Бельгия Франция, триллер, драма, WEB-DLRip] MVO (СПД)

    Reply to topic
    Author Message


    Post 07-Jul-2016 11:09



    Пара в Холе / Couple in a Hole
    Страна: Великобритания Бельгия Франция
    Жанр: триллер, драма
    Год выпуска: 2015
    Продолжительность: 01:44:47
    Перевод: Любительский (многоголосый закадровый) СПД
    Cубтитры: нет
    Режиссер: Том Гинс / Tom Geens
    В ролях: Пол Хиггинс, Кейт Дики, Жером Киршер, Корина Масьеро
    Описание: Жизнь влюблённоё пары становится совсем другой, когда они оказываются одни в природных диких уголках Франции. Весь тот период жизни, что у них был раньше - никак не вписывался в настоящее. Им придеться не жить, а выживать...
    Качество видео: WEB-DLRip
    Формат видео: AVI
    Видео: 720x304 (2.37:1), 24.000 fps, XviD build 50 ~1477 kbps avg, 0.28 bit/pixel
    Аудио: 48 kHz, AC3 Dolby Digital, 3/2 (L,C,R,l,r) + LFE ch, ~384 kbps


    Complete name : E:\Zona Downloads\
    Format : AVI
    Format/Info : Audio Video Interleave
    File size : 1.37 GiB
    Duration : 1h 44mn
    Overall bit rate : 1 871 Kbps
    Writing application : VirtualDubMod | || (build 2550/release)
    Writing library : VirtualDubMod build 2550/release
    ID : 0
    Format : MPEG-4 Visual
    Format profile : Advanced Simple@L5
    Format settings, BVOP : 2
    Format settings, QPel : No
    Format settings, GMC : No warppoints
    Format settings, Matrix : Custom
    Codec ID : XVID
    Codec ID/Hint : XviD
    Duration : 1h 44mn
    Bit rate : 1 478 Kbps
    Width : 720 pixels
    Height : 304 pixels
    Display aspect ratio : 2.35:1
    Frame rate : 24.000 fps
    Color space : YUV
    Chroma subsampling : 4:2:0
    Bit depth : 8 bits
    Scan type : Progressive
    Compression mode : Lossy
    Bits/(Pixel*Frame) : 0.281
    Stream size : 1.08 GiB (79%)
    Writing library : XviD 1.2.1 (UTC 2008-12-04)
    ID : 1
    Format : AC-3
    Format/Info : Audio Coding 3
    Mode extension : CM (complete main)
    Format settings, Endianness : Big
    Codec ID : 2000
    Duration : 1h 44mn
    Bit rate mode : Constant
    Bit rate : 384 Kbps
    Channel(s) : 6 channels
    Channel positions : Front: L C R, Side: L R, LFE
    Sampling rate : 48.0 KHz
    Bit depth : 16 bits
    Compression mode : Lossy
    Stream size : 288 MiB (21%)
    Alignment : Split accross interleaves
    Interleave, duration : 42 ms (1.00 video frame)
    Interleave, preload duration : 500 ms

    Скриншот c названием фильма


    Download .torrent

    Download free and at maximum speed!

    How to Download? · What is a torrent? · Ratings and Limitations

    The site does not extend and does not store electronic(digital) versions of products, and only gives access to a reference catalogue created by users on torrent-files which contain only lists of the hash-sums, the earnest entreaty, with complaints(abuse) to access directly to the user. Files for an exchange on tracker are given by users of a site, and the administration does not bear the responsibility for their maintenance. The request to not fill in the files protected by copyrights, and also files of the illegal maintenance!

    [Profile] [PM]
    Display posts from previous:    
    Reply to topic

    The time now is: Today 20:29

    All times are GMT + 3 Hours

    You cannot post new topics in this forum
    You cannot reply to topics in this forum
    You cannot edit your posts in this forum
    You cannot delete your posts in this forum
    You cannot vote in polls in this forum
    You cannot attach files in this forum
    You cannot download files in this forum