Register  ·  Log in
Forgot password?

  • Парикмахерская 3 / Barbershop: The Next Cut (Малкольм Д. Ли / Malcolm D. Lee) [2016, США, комедия, WEB-DLRip] MVO (Parovoz Production)

    Reply to topic
    Author Message


    Post 07-Jul-2016 02:52



    Парикмахерская 3 / Barbershop: The Next Cut
    Страна: США
    Жанр: комедия
    Год выпуска: 2016
    Продолжительность: 01:51:40
    Перевод: Любительский (многоголосый закадровый) Parovoz Production
    Cубтитры: нет
    Режиссер: Малкольм Д. Ли / Malcolm D. Lee
    В ролях: Айс Кьюб, Седрик «Развлекатель», Реджина Холл, Шон Патрик Томас, Ив, Энтони Андерсон, Жасмин Льюис, Дж.Б. Смув
    Описание: С момента событий, описанных во второй части картины прошло более 10 лет. Кэлвин и его верная команда все еще в деле, однако, сама парикмахерская претерпела множество изменений. И первое, что бросается в глаза — присутствие представительниц прекрасного пола в некогда исключительно мужской компании…
    Качество видео: WEB-DLRip
    Формат видео: AVI
    Видео: 720x400 (1.80:1), 23.976 fps, XviD build 50 ~1476 kbps avg, 0.21 bit/pixel
    Аудио: 48 kHz, AC3 Dolby Digital, 2/0 (L,R) ch, ~384 kbps


    Complete name : E:\Zona Downloads\Barbershop.The.Next.Cut.2016.L.WEB-DLRip.avi
    Format : AVI
    Format/Info : Audio Video Interleave
    File size : 1.46 GiB
    Duration : 1h 51mn
    Overall bit rate : 1 870 Kbps
    ID : 0
    Format : MPEG-4 Visual
    Format profile : Advanced Simple@L5
    Format settings, BVOP : 2
    Format settings, QPel : No
    Format settings, GMC : No warppoints
    Format settings, Matrix : Custom
    Codec ID : XVID
    Codec ID/Hint : XviD
    Duration : 1h 51mn
    Bit rate : 1 477 Kbps
    Width : 720 pixels
    Height : 400 pixels
    Display aspect ratio : 16:9
    Frame rate : 23.976 fps
    Color space : YUV
    Chroma subsampling : 4:2:0
    Bit depth : 8 bits
    Scan type : Progressive
    Compression mode : Lossy
    Bits/(Pixel*Frame) : 0.214
    Stream size : 1.15 GiB (79%)
    Writing library : XviD 1.2.1 (UTC 2008-12-04)
    ID : 1
    Format : AC-3
    Format/Info : Audio Coding 3
    Mode extension : CM (complete main)
    Format settings, Endianness : Big
    Codec ID : 2000
    Duration : 1h 51mn
    Bit rate mode : Constant
    Bit rate : 384 Kbps
    Channel(s) : 2 channels
    Channel positions : Front: L R
    Sampling rate : 48.0 KHz
    Bit depth : 16 bits
    Compression mode : Lossy
    Stream size : 307 MiB (21%)
    Alignment : Split accross interleaves
    Interleave, duration : 42 ms (1.00 video frame)
    Interleave, preload duration : 500 ms

    Скриншот c названием фильма


    Download .torrent

    Download free and at maximum speed!

    How to Download? · What is a torrent? · Ratings and Limitations

    The site does not extend and does not store electronic(digital) versions of products, and only gives access to a reference catalogue created by users on torrent-files which contain only lists of the hash-sums, the earnest entreaty, with complaints(abuse) to access directly to the user. Files for an exchange on tracker are given by users of a site, and the administration does not bear the responsibility for their maintenance. The request to not fill in the files protected by copyrights, and also files of the illegal maintenance!

    [Profile] [PM]
    Display posts from previous:    
    Reply to topic

    The time now is: Today 10:53

    All times are GMT + 3 Hours

    You cannot post new topics in this forum
    You cannot reply to topics in this forum
    You cannot edit your posts in this forum
    You cannot delete your posts in this forum
    You cannot vote in polls in this forum
    You cannot attach files in this forum
    You cannot download files in this forum