BitTorrentTracker PerecTracker.org
BitTorrentTracker PerecTracker.org
    
Регистрация  ·  Вход
 
 · 
Забыли пароль?

  • Идеалист / Idealisten (Кристина Розендаль / Christina Rosendahl) [2015, Дания, триллер, HDRip] VO (Marti)

    Ответить на тему
     
    Автор Сообщение

    Light

    Создавать темы 07-Июл-2016 01:52

           

    [Цитировать]

    Идеалист / Idealisten
    Страна: Дания
    Жанр: триллер
    Год выпуска: 2015
    Продолжительность: 01:48:58
    Перевод: Одноголосый закадровый Marti
    Cубтитры: нет
    Режиссер: Кристина Розендаль / Christina Rosendahl
    В ролях: Петер Плаугборг, Сёрен Маллинг, Томас Бо Ларсен, Йенс Альбинус, Арли Жовер, Хенрик Бирк, Клаус Буэ, Ханс Хенрик Клеменсен, Николай Седерхольм, Оле Дюпон, Тим Ахерн, Ларри Дотсон, Пол Келлехер
    Описание: 21 января 1968 года вблизи авиабазы Туле в Гренландии разбился американский бомбардировщик B-52 с четырьмя термоядерными бомбами на борту. Для проведения работ по очистке и дезактивации заражённой местности были привлечены и датские рабочие. Спустя двадцать лет радиорепортёр Поуль Брик поднимает тему неблагополучного состояния здоровья ликвидаторов последствий аварии. Чем дальше он продвигается в своём журналистском расследовании, тем отчётливее проступают контуры большой политической лжи, тщательно скрываемой как датскими, так и американскими властями.
    Доп. информация:
    Перевод оригинальных субтитров: adelstein_s
    Редактура субтитров: Helen
    Коррекция тайминга: AllShallFall
    Работа со звуком: disPATCHer
    Видео: Scarabey
    Сэмпл: http://sendfile.su/1247823
    Качество видео: HDRip (исходник неизвестен)
    Формат видео: AVI
    Видео: 688x368 (1.87:1), 24 fps, XviD build 73 ~1621 kbps avg, 0.27 bit/pixel
    Аудио: 48 kHz, AC3 Dolby Digital, 2/0 (L,R) ch, ~192 kbps

    MediaInfo

    General
    Complete name : E:\Zona Downloads\Idealisten.2015_HDRip.avi
    Format : AVI
    Format/Info : Audio Video Interleave
    File size : 1.45 GiB
    Duration : 1h 53mn
    Overall bit rate : 1 823 Kbps
    Writing application : VirtualDubMod 1.5.10.2 (build 2540/release)
    Writing library : VirtualDubMod build 2540/release
    Video
    ID : 0
    Format : MPEG-4 Visual
    Format profile : Advanced Simple@L5
    Format settings, BVOP : 1
    Format settings, QPel : No
    Format settings, GMC : No warppoints
    Format settings, Matrix : Custom
    Codec ID : XVID
    Codec ID/Hint : XviD
    Duration : 1h 53mn
    Bit rate : 1 622 Kbps
    Width : 688 pixels
    Height : 368 pixels
    Display aspect ratio : 1.85:1
    Frame rate : 24.000 fps
    Color space : YUV
    Chroma subsampling : 4:2:0
    Bit depth : 8 bits
    Scan type : Progressive
    Compression mode : Lossy
    Bits/(Pixel*Frame) : 0.267
    Stream size : 1.29 GiB (89%)
    Writing library : XviD 73
    Audio
    ID : 1
    Format : AC-3
    Format/Info : Audio Coding 3
    Mode extension : CM (complete main)
    Format settings, Endianness : Big
    Codec ID : 2000
    Duration : 1h 53mn
    Bit rate mode : Constant
    Bit rate : 192 Kbps
    Channel(s) : 2 channels
    Channel positions : Front: L R
    Sampling rate : 48.0 KHz
    Bit depth : 16 bits
    Compression mode : Lossy
    Stream size : 156 MiB (11%)
    Alignment : Aligned on interleaves
    Interleave, duration : 42 ms (1.00 video frame)
    Interleave, preload duration : 512 ms

    Скриншот c названием фильма

    Скриншоты

    Скачать .torrent

    Скачать торрент-файл бесплатно и на максимальной скорости!

    Как скачивать? · Что такое торрент? · Рейтинг и ограничения

    !ВНИМАНИЕ!
    Сайт не распространяет и не хранит электронные версии произведений, а занимается лишь лишь предоставлением доступа к создаваемому пользователями каталогу ссылок на торрент-файлы, которые содержат только списки хеш-сумм, убедительная просьба с жалобами обращаться напрямую к пользователю. Файлы для обмена на трекере предоставлены пользователями сайта, и администрация не несёт ответственности за их содержание. Просьба не заливать файлы, защищенные авторскими правами, а также файлы нелегального содержания!


    _________________
    [Профиль] [ЛС]
    Показать сообщения:    
    Ответить на тему

    Текущее время: Сегодня, в 08:19

    Часовой пояс: GMT + 2



    Вы не можете начинать темы
    Вы не можете отвечать на сообщения
    Вы не можете редактировать свои сообщения
    Вы не можете удалять свои сообщения
    Вы не можете голосовать в опросах
    Вы не можете прикреплять файлы к сообщениям
    Вы не можете скачивать файлы