BitTorrentTracker PerecTracker.org
BitTorrentTracker PerecTracker.org
    
Регистрация  ·  Вход
 
 · 
Забыли пароль?

  • Выбор / The Choice (Росс Катц / Ross Katz) [2016, США, мелодрама, HDRip] MVO (RecentFilms)

    Ответить на тему
     
    Автор Сообщение

    rechyn

    Создавать темы 06-Июл-2016 21:43

           

    [Цитировать]

    Выбор / The Choice
    Страна: США
    Жанр: Мелодрама
    Год выпуска: 2016
    Продолжительность: 01:51:06
    Перевод: Любительский (многоголосый закадровый) RecentFilms
    Cубтитры: отсутствуют
    Оригинальная аудиодорожка: нет
    Режиссёр: Росс Катц / Ross Katz
    Актёры: Бенджамин Уокер, Тереза Палмер, Александра Даддарио, Мэгги Грэйс, Том Уилкинсон, Том Уэллинг, Джесси С. Бойд, Брэд Джеймс, Бретт Райс, Эшли ЛеКонте-Кэмпбелл, Шарон Блэквуд, Марти Стоунрок, Дайан Селлерс, Уилбур Фицджералд, Каллэн Уайт, и др.
    Аннотация: Молодой врач-ветеринар живёт и горя не знает, вся жизнь сплошной праздник, он потерял счёт женщинам, даже уже и не помнит когда... И даже никогда он не думал, что сможет связать себя узами брака, с той одной единственной и неповторимой, которая была бы матерью его детей, и хозяйкой в его холостяцкой берлоге... Но вот однажды поздно вечером, к нему на территорию сопредельную с берлогой, напролом врывается разгневанная соседка, молодая и привлекательная, совсем недавно поселившаяся рядом, она настоятельно просит выключить громкую музыку... Стрела Амура поражает его прямо в сердце! Неожиданно и сразу наповал! Он даже испугаться не успел...

    Качество видео: HDRip
    Формат видео: AVI
    Video: XviD 73 MPEG-4, 688x288 (2.40:1) 23.976 fps, ~800 kbps avg, 0.168 bit/pixel
    Аudio: MP-3 Joint stereo, CBR 128 kbps 2 ch, 48.0 KHz

    MediaInfo

    ОбщееПолное имя : S:\The_Choice_2016_HDRip_[perectracker.org].aviФормат : AVIФормат/Информация : Audio Video InterleaveРазмер файла : 745 МбайтПродолжительность : 1 ч. 51 м.Общий поток : 937 Кбит/секНазвание фильма : The_Choice_2016_HDRip_[perectracker.org]Режиссёр : networkЖанр : МелодрамаПрограмма кодирования : VirtualDubModRus 1.5.10.2 (build 2542/release)Формат оригинала/Имя : Фильмы 2016Правообладатель : networkПримечание : 6 июля 2016 г.
    ВидеоИдентификатор : 0Формат : MPEG-4 VisualПрофиль формата : Advanced Simple@L5Параметр BVOP формата : 1Параметр QPel формата : НетПараметр GMC формата : Без точки переходаПараметр матрицы формата : ВыборочнаяИдентификатор кодека : DX50Идентификатор кодека/Подсказка : DivX 5Продолжительность : 1 ч. 51 м.Битрейт : 800 Кбит/секШирина : 688 пикселейВысота : 288 пикселейСоотношение сторон : 2,40:1Частота кадров : 23,976 кадра/секЦветовое пространство : YUVСубдискретизация насыщенности : 4:2:0Битовая глубина : 8 битТип развёртки : ПрогрессивнаяМетод сжатия : С потерямиБит/(Пиксели*Кадры) : 0.168Размер потока : 636 Мбайт (85%)Библиотека кодирования : XviD 73
    АудиоИдентификатор : 1Формат : MPEG AudioВерсия формата : Version 1Профиль формата : Layer 3Режим : Joint stereoРасширение режима : MS StereoИдентификатор кодека : 55Идентификатор кодека/Подсказка : MP3Продолжительность : 1 ч. 51 м.Вид битрейта : ПостоянныйБитрейт : 128 Кбит/секКаналы : 2 каналаЧастота : 48,0 КГцМетод сжатия : С потерямиРазмер потока : 102 Мбайт (14%)Выравнивание : Соединение по промежуткамПродолжительность промежутка : 42 мс. (1,00 видеокадр)Время предзагрузки промежутка : 504 мс.Библиотека кодирования : LAME3.99.5ЄЄЄЄЄЄЄЄЄЄ

    Скриншот c названием фильма

    Скриншоты

    Время раздачи - по возможности.
    Скачать .torrent

    Скачать торрент-файл бесплатно и на максимальной скорости!

    Как скачивать? · Что такое торрент? · Рейтинг и ограничения

    !ВНИМАНИЕ!
    Сайт не распространяет и не хранит электронные версии произведений, а занимается лишь лишь предоставлением доступа к создаваемому пользователями каталогу ссылок на торрент-файлы, которые содержат только списки хеш-сумм, убедительная просьба с жалобами обращаться напрямую к пользователю. Файлы для обмена на трекере предоставлены пользователями сайта, и администрация не несёт ответственности за их содержание. Просьба не заливать файлы, защищенные авторскими правами, а также файлы нелегального содержания!


    _________________
    [Профиль] [ЛС]
    Показать сообщения:    
    Ответить на тему

    Текущее время: Сегодня, в 11:10

    Часовой пояс: GMT + 2



    Вы не можете начинать темы
    Вы не можете отвечать на сообщения
    Вы не можете редактировать свои сообщения
    Вы не можете удалять свои сообщения
    Вы не можете голосовать в опросах
    Вы не можете прикреплять файлы к сообщениям
    Вы не можете скачивать файлы