BitTorrentTracker PerecTracker.org
BitTorrentTracker PerecTracker.org
    
Регистрация  ·  Вход
 
 · 
Забыли пароль?

  • Встречи после полуночи / You and the Night (Ян Гонзалез / Yann Gonzalez) [2013, Франция, драма, эротика, HDRip] VO (PashaUp)

    Ответить на тему
     
    Автор Сообщение

    Light

    Создавать темы 06-Июл-2016 17:31

           

    [Цитировать]

    Встречи после полуночи / You and the Night
    Страна: Франция
    Жанр: драма, эротика
    Год выпуска: 2013
    Продолжительность: 01:32:22
    Перевод: Одноголосый закадровый PashaUp
    Cубтитры: нет
    Режиссер: Ян Гонзалез/Yann Gonzalez
    В ролях: Кейт Моран, Нильс Шнайдер, Николя Мори, Эрик Кантона, Фабьенн Баб, Ален-Фабьен Делон, Джули Бремон, Беатрис Даль, Жан-Кристоф Буве
    Описание: Устав от повседневной рутины, молодые любовники Али и Матиас приглашают гостей провести незабываемую ночь на своей роскошной вилле. Симпатичная блондинка и её застенчивый бойфренд с нетерпением ждут появления первого гостя, а пока они приятно проводят время в компании своей горничной-трансвестита Удо. Вскоре к ним присоединяются Шлюха, Звезда, Жеребец, и Тинейджер, и за каждый из героев скрывает за своим псевдонимом серьезные психологические проблемы...

    Сэмпл: https://yadi.sk/i/o3154GLXszquH
    Качество видео: HDRip
    Формат видео: AVI
    Видео: XviD, 720 x 432, ~1452 kbps
    Аудио: Русский: AC-3, 2 ch, 192 kbps
    Аудио 2: Французский: AC-3, 6 ch, 448 kbps

    MediaInfo

    General
    Complete name : You.And.The.Night.2013.HDRip.avi
    Format : AVI
    Format/Info : Audio Video Interleave
    Format profile : OpenDML
    File size : 1.36 GiB
    Duration : 1 h 32 min
    Overall bit rate : 2 111 kb/s
    Writing application : Lavf51.12.1
    Video
    ID : 0
    Format : MPEG-4 Visual
    Format profile : Simple@L1
    Format settings, BVOP : No
    Format settings, QPel : No
    Format settings, GMC : No warppoints
    Format settings, Matrix : Default (H.263)
    Codec ID : FMP4
    Duration : 1 h 32 min
    Bit rate : 1 452 kb/s
    Width : 720 pixels
    Height : 432 pixels
    Display aspect ratio : 5:3
    Frame rate : 24.000 FPS
    Color space : YUV
    Chroma subsampling : 4:2:0
    Bit depth : 8 bits
    Scan type : Progressive
    Compression mode : Lossy
    Bits/(Pixel*Frame) : 0.194
    Stream size : 959 MiB (69%)
    Writing library : Lavc51.40.4
    Audio #1
    ID : 1
    Format : AC-3
    Format/Info : Audio Coding 3
    Mode extension : CM (complete main)
    Format settings, Endianness : Big
    Codec ID : 2000
    Duration : 1 h 32 min
    Bit rate mode : Constant
    Bit rate : 192 kb/s
    Channel(s) : 2 channels
    Channel positions : Front: L R
    Sampling rate : 48.0 kHz
    Frame rate : 31.250 FPS (1536 spf)
    Bit depth : 16 bits
    Compression mode : Lossy
    Stream size : 127 MiB (9%)
    Alignment : Aligned on interleaves
    Interleave, duration : 32 ms (0.77 video frame)
    Interleave, preload duration : 32 ms
    Audio #2
    ID : 2
    Format : AC-3
    Format/Info : Audio Coding 3
    Mode extension : CM (complete main)
    Format settings, Endianness : Big
    Codec ID : 2000
    Duration : 1 h 32 min
    Bit rate mode : Constant
    Bit rate : 448 kb/s
    Channel(s) : 6 channels
    Channel positions : Front: L C R, Side: L R, LFE
    Sampling rate : 48.0 kHz
    Frame rate : 31.250 FPS (1536 spf)
    Bit depth : 16 bits
    Compression mode : Lossy
    Stream size : 296 MiB (21%)
    Alignment : Aligned on interleaves
    Interleave, duration : 32 ms (0.77 video frame)
    Interleave, preload duration : 32 ms

    Скриншоты

    Скачать .torrent

    Скачать торрент-файл бесплатно и на максимальной скорости!

    Как скачивать? · Что такое торрент? · Рейтинг и ограничения

    !ВНИМАНИЕ!
    Сайт не распространяет и не хранит электронные версии произведений, а занимается лишь лишь предоставлением доступа к создаваемому пользователями каталогу ссылок на торрент-файлы, которые содержат только списки хеш-сумм, убедительная просьба с жалобами обращаться напрямую к пользователю. Файлы для обмена на трекере предоставлены пользователями сайта, и администрация не несёт ответственности за их содержание. Просьба не заливать файлы, защищенные авторскими правами, а также файлы нелегального содержания!


    _________________
    [Профиль] [ЛС]
    Показать сообщения:    
    Ответить на тему

    Текущее время: Сегодня, в 17:50

    Часовой пояс: GMT + 2



    Вы не можете начинать темы
    Вы не можете отвечать на сообщения
    Вы не можете редактировать свои сообщения
    Вы не можете удалять свои сообщения
    Вы не можете голосовать в опросах
    Вы не можете прикреплять файлы к сообщениям
    Вы не можете скачивать файлы