BitTorrentTracker PerecTracker.org
BitTorrentTracker PerecTracker.org
    
Регистрация  ·  Вход
 
 · 
Забыли пароль?

  • (Trance) Markus Schulz - Scream 2 - 2014, FLAC (image+.cue), lossless

    Ответить на тему
     
    Автор Сообщение

    Columb

    Создавать темы 16-Мар-2014 10:03

           

    [Цитировать]

    Markus Schulz - Scream 2
    Жанр: Trance
    Год издания: 2014
    Издатель (лейбл): Armada Music. Made in Netherlands
    Номер по каталогу: ARMA375
    Аудиокодек: FLAC (*.flac)
    Тип рипа: image+.cue
    Битрейт аудио: lossless
    Продолжительность: 01:15:49
    Источник (релизер): CD
    Наличие сканов в содержимом раздачи: да
    Треклист:
    01. Markus Schulz - Reloaded
    02. Markus Schulz with Venom One feat. Chris Madin - Revolution
    03. Markus Schulz feat. Liz Primo - Blown Away
    04. Markus Schulz - Remember This
    05. Markus Schulz feat. Lady V - Erase You
    06. Markus Schulz - Destino
    07. Markus Schulz feat. Adina Butar - Muse
    08. Markus Schulz - Dancing In The Key Of Life
    09. Markus Schulz feat. Liz Horsman - Lord Knows
    10. Markus Schulz with Klauss Goulart feat. Paul Aiden - Fireworks
    11. Markus Schulz - In The Shadows
    12. Markus Schulz feat. CeCe Peniston - Make You Fall
    13. Markus Schulz - Mango
    14. Markus Schulz - Mardi Gras
    15. Markus Schulz feat. Amy Kirkpatrick - Gravity
    16. Markus Schulz - Reflection
    17. Markus Schulz with Rex Mundi - Towards The Sun

    Лог создания рипа

    Exact Audio Copy V1.0 beta 3 from 29. August 2011
    EAC extraction logfile from 14. March 2014, 18:36
    Markus Schulz / Scream 2
    Used drive : ATAPI iHAS124 C Adapter: 4 ID: 0
    Read mode : SecureUtilize accurate stream : YesDefeat audio cache : YesMake use of C2 pointers : No
    Read offset correction : 6Overread into Lead-In and Lead-Out : NoFill up missing offset samples with silence : YesDelete leading and trailing silent blocks : NoNull samples used in CRC calculations : YesUsed interface : Native Win32 interface for Win NT & 2000
    Used output format : User Defined EncoderSelected bitrate : 896 kBit/sQuality : HighAdd ID3 tag : NoCommand line compressor : C:\Program Files (x86)\Exact Audio Copy\Flac\flac.exeAdditional command line options : -V -8 -T "Genre=%genre%" -T "Artist=%artist%" -T "Title=%title%" -T "Album=%albumtitle%" -T "Date=%year%" -T "Tracknumber=%tracknr%" -T "Comment=%comment%" %source%
    TOC of the extracted CD
    Track | Start | Length | Start sector | End sector --------------------------------------------------------- 1 | 0:00.00 | 4:36.23 | 0 | 20722 2 | 4:36.23 | 3:49.64 | 20723 | 37961 3 | 8:26.12 | 6:43.35 | 37962 | 68221 4 | 15:09.47 | 2:57.18 | 68222 | 81514 5 | 18:06.65 | 4:56.21 | 81515 | 103735 6 | 23:03.11 | 4:39.66 | 103736 | 124726 7 | 27:43.02 | 4:56.17 | 124727 | 146943 8 | 32:39.19 | 3:01.74 | 146944 | 160592 9 | 35:41.18 | 4:44.22 | 160593 | 181914 10 | 40:25.40 | 5:11.67 | 181915 | 205306 11 | 45:37.32 | 3:38.14 | 205307 | 221670 12 | 49:15.46 | 4:31.07 | 221671 | 242002 13 | 53:46.53 | 6:31.72 | 242003 | 271399 14 | 60:18.50 | 3:52.07 | 271400 | 288806 15 | 64:10.57 | 3:52.64 | 288807 | 306270 16 | 68:03.46 | 4:20.23 | 306271 | 325793 17 | 72:23.69 | 3:24.68 | 325794 | 341161
    Range status and errors
    Selected range
    Filename D:\rip-flacmusic.ru\Markus Schulz - Scream 2.wav
    Peak level 100.0 % Extraction speed 10.0 X Range quality 100.0 % Test CRC AE0E758C Copy CRC AE0E758C Copy OK
    No errors occurred
    AccurateRip summary
    Track 1 not present in databaseTrack 2 not present in databaseTrack 3 not present in databaseTrack 4 not present in databaseTrack 5 not present in databaseTrack 6 not present in databaseTrack 7 not present in databaseTrack 8 not present in databaseTrack 9 not present in databaseTrack 10 not present in databaseTrack 11 not present in databaseTrack 12 not present in databaseTrack 13 not present in databaseTrack 14 not present in databaseTrack 15 not present in databaseTrack 16 not present in databaseTrack 17 not present in database
    None of the tracks are present in the AccurateRip database
    End of status report
    ==== Log checksum 148977276B510FB8D888468F3BC3B9A85E6F552BC3723A42DB74EACF16AE9168 ====

    Содержание индексной карты (.CUE)

    REM GENRE TranceREM DATE 2014REM DISCID 0311C411REM COMMENT "ExactAudioCopy v1.0b3"PERFORMER "Markus Schulz"TITLE "Scream 2"FILE "Markus Schulz - Scream 2.flac" WAVE TRACK 01 AUDIO TITLE "Reloaded" PERFORMER "Markus Schulz" INDEX 01 00:00:00 TRACK 02 AUDIO TITLE "Revolution" PERFORMER "Markus Schulz with Venom One feat. Chris Madin" INDEX 01 04:36:23 TRACK 03 AUDIO TITLE "Blown Away" PERFORMER "Markus Schulz feat. Liz Primo" INDEX 01 08:26:12 TRACK 04 AUDIO TITLE "Remember This" PERFORMER "Markus Schulz" INDEX 01 15:09:47 TRACK 05 AUDIO TITLE "Erase You" PERFORMER "Markus Schulz feat. Lady V" INDEX 01 18:06:65 TRACK 06 AUDIO TITLE "Destino" PERFORMER "Markus Schulz" INDEX 01 23:03:11 TRACK 07 AUDIO TITLE "Muse" PERFORMER "Markus Schulz feat. Adina Butar" INDEX 01 27:43:02 TRACK 08 AUDIO TITLE "Dancing In The Key Of Life" PERFORMER "Markus Schulz" INDEX 01 32:39:19 TRACK 09 AUDIO TITLE "Lord Knows" PERFORMER "Markus Schulz feat. Liz Horsman" INDEX 01 35:41:18 TRACK 10 AUDIO TITLE "Fireworks" PERFORMER "Markus Schulz with Klauss Goulart feat. Paul Aiden" INDEX 01 40:25:40 TRACK 11 AUDIO TITLE "In The Shadows" PERFORMER "Markus Schulz" INDEX 01 45:37:32 TRACK 12 AUDIO TITLE "Make You Fall" PERFORMER "Markus Schulz feat. CeCe Peniston" INDEX 01 49:15:46 TRACK 13 AUDIO TITLE "Mango" PERFORMER "Markus Schulz" INDEX 01 53:46:53 TRACK 14 AUDIO TITLE "Mardi Gras" PERFORMER "Markus Schulz" INDEX 01 60:18:50 TRACK 15 AUDIO TITLE "Gravity" PERFORMER "Markus Schulz feat. Amy Kirkpatrick" INDEX 01 64:10:57 TRACK 16 AUDIO TITLE "Reflection" PERFORMER "Markus Schulz" INDEX 01 68:03:46 TRACK 17 AUDIO TITLE "Towards The Sun" PERFORMER "Markus Schulz with Rex Mundi" INDEX 01 72:23:69

    Лог проверки качества

    AUDIOCHECKER v2.0 beta (build 457) - by Dester - opdester@freemail.hu~~~~~~~~~~~~~~~~~~~~~~~~~~~~~~~~~~
    Started at: �����������, 16. 03. 2014. - 11:16.491 file found
    1 -===- D:\Markus Schulz - Scream 2 (2014)\Markus Schulz - Scream 2.flac Extracted successfully Conclusion: this track is CDDA with probability 100% Tempfile successfully deleted.
    Finished at: �����������, 16. 03. 2014. - 11:21.10 (operation time: 0:04.20)

    Об альбоме (сборнике)

    Год назад Маркус Шульц выпустил альбом «Scream», в очередной раз раздвинув границы жанра транс и существенно укрепив свои позиции в мире электронной танцевальной музыки. Тогда релиз получил невероятное множество положительных отзывов как от простых поклонников, так и от профессиональных критиков. Впрочем, американец никогда не любил почивать на собственных лаврах, поэтому уже в начале 2014 года представляет монументальное продолжение в виде 17 треков, получившее понятное название «Scream 2». По замыслам Маркуса, альбом отсылает слушателя к прошлому, когда тот в начале «нулевых» буквально взлетел на вершину чартов и стал одним из наиболее значимых артистов танцевальной сцены, коим остаётся и по сей день. К работе над альбомом Шульц по традиции привлёк сторонних продюсеров и вокалистов, с которыми прошёл огонь и воду и которые сегодня ассоциируются исключительно с высоким качеством музыкального материала. Например, в записи приняли участие половинка ванкуверского дуэта Data Romance Эми Киркпатрик, лондонский проект Venom One, лос-анджелесская поп-дива Liz Primo, обладательница Грэмми Lady V, бразильский музыкант Клаус Гуларт, популярные певцы Крис Мадин, Лиз Хорсман, Пол Айден и CeCe Penniston, ведущая вокалистка лейбла Coldharbour Адина Бутар, а также кудесник транса Rex Mundi. Половина альбома получилась мейнстримовой, радийной и придётся по душе большинству любителей электронной музыки. Другая же часть – это скорее дань клубам и безудержной энергии танцпола, с которыми Маркус Шульц знаком не понаслышке. Релиз «Scream 2» намечен на 21 февраля на лейбле Armada Music, а такие треки, как «Destino», «Mardi Gras», «Fireworks» и «In The Shadows», уже сейчас называют будущим хитами этого года.
    Скачать .torrent

    Скачать торрент-файл бесплатно и на максимальной скорости!

    Как скачивать? · Что такое торрент? · Рейтинг и ограничения

    !ВНИМАНИЕ!
    Сайт не распространяет и не хранит электронные версии произведений, а занимается лишь лишь предоставлением доступа к создаваемому пользователями каталогу ссылок на торрент-файлы, которые содержат только списки хеш-сумм, убедительная просьба с жалобами обращаться напрямую к пользователю. Файлы для обмена на трекере предоставлены пользователями сайта, и администрация не несёт ответственности за их содержание. Просьба не заливать файлы, защищенные авторскими правами, а также файлы нелегального содержания!

    [Профиль] [ЛС]
    Показать сообщения:    
    Ответить на тему

    Текущее время: Сегодня, в 20:10

    Часовой пояс: GMT + 2



    Вы не можете начинать темы
    Вы не можете отвечать на сообщения
    Вы не можете редактировать свои сообщения
    Вы не можете удалять свои сообщения
    Вы не можете голосовать в опросах
    Вы не можете прикреплять файлы к сообщениям
    Вы не можете скачивать файлы