BitTorrentTracker PerecTracker.org
BitTorrentTracker PerecTracker.org
    
Регистрация  ·  Вход
 
 · 
Забыли пароль?

  • Зеленая комната / Green Room (Джереми Солнье / Jeremy Saulnier) [2015, США, триллер, криминал, BDRip-AVC] VO (Хихикающий доктор) + Original + Sub (eng)

    Ответить на тему
     
    Автор Сообщение

    Light

    Создавать темы 06-Июл-2016 09:06

           

    [Цитировать]

    Зеленая комната / Green Room«Now. Whatever you saw or did. Is no longer my concern. But let's be clear. It won't end well»-Страна: США
    Жанр: триллер, криминал
    Год выпуска: 2015
    Продолжительность: 01:35:02
    Перевод: Одноголосый закадровый (Хихикающий доктор) !Ненормативная лексика!
    Оригинальная аудиодорожка: английский
    Субтитры: английские (полные)
    Навигация по главам: есть
    Режиссер: Джереми Солнье / Jeremy Saulnier
    В ролях: Антон Ельчин (Pat), Джо Коул (Reece), Алиа Шокат (Sam), Каллум Тернер (Tiger), Дэвид В. Томпсон (Tad), Марк Веббер (Daniel), Мэйкон Блэр (Gabe), Эрик Эдельштейн (Big Justin), Майкл Дрэйпер (Stagehand), Andy Copeland (Stage Manager), Брент Уэрзнер (Werm), ЭлДжей Клинк (Guitarist)
    Описание: Панк-группа из четырёх человек ездит по Америке на небольшом фургончике. Дают концерты где придётся и считают копейки. И тут выпадает возможность подзаработать на концерте в общине скинхедов чуть больше, чем обычно. Конечно же они соглашаются. Всё, вроде бы проходит неплохо, но после концерта они становятся свидетелями убийства в гримёрке с зелёными стенами.- -Качество: BDRip-AVC (исходник - BDRemux|Green.Room.2015.1080p.BluRay.REMUX.AVC.DTS-HD.MA.5.1-RARBG)
    Формат видео: MKV
    Видео: x264, 1152x480 (2.40:1), 23,976 fps, ~1818 kbps, 0.137 bit/pixel
    Аудио 1: 48 kHz, AC3 Dolby Digital, 2/0 (L,R) ch, ~192 kbps [русский]
    Аудио 2: 48 kHz, AC3 Dolby Digital, 2/0 (L,R) ch, ~192 kbps [английский]
    Формат субтитров: softsub (SRT)-MediaInfo | x264 log
    Format : Matroska
    Format version : Version 4 / Version 2
    File size : 1.46 GiB
    Duration : 1h 35mn
    Overall bit rate : 2 198 Kbps
    Movie name : Зеленая комната / Green Room (2015) :: AFM ::
    Encoded date : UTC 2016-07-04 14:16:08
    Writing application : mkvmerge v8.3.0 ('Over the Horizon') 32bit
    Writing library : libebml v1.3.1 + libmatroska v1.4.2
    Video
    ID : 1
    Format : AVC
    Format/Info : Advanced Video Codec
    Format profile : High@L4.1
    Format settings, CABAC : Yes
    Format settings, ReFrames : 10 frames
    Codec ID : V_MPEG4/ISO/AVC
    Duration : 1h 35mn
    Bit rate : 1 818 Kbps
    Width : 1 152 pixels
    Height : 480 pixels
    Display aspect ratio : 2.40:1
    Frame rate mode : Constant
    Frame rate : 23.976 fps
    Color space : YUV
    Chroma subsampling : 4:2:0
    Bit depth : 8 bits
    Scan type : Progressive
    Bits/(Pixel*Frame) : 0.137
    Stream size : 1.18 GiB (81%)
    Title : BDRip by AFM [RuTracker.org]
    Writing library : x264 core 148 r2705+54 9f484c1 t_mod_Custom [8-bit@all X86_64]
    Encoding settings : cabac=1 / ref=10 / deblock=1:-2:-2 / analyse=0x3:0x113 / me=umh / subme=10 / psy=1 / fade_compensate=0.00 / psy_rd=1.00:0.00 / mixed_ref=1 / me_range=32 / chroma_me=1 / trellis=2 / 8x8dct=1 / cqm=0 / deadzone=21,11 / fast_pskip=0 / chroma_qp_offset=-2 / threads=6 / lookahead_threads=1 / sliced_threads=0 / nr=0 / decimate=0 / interlaced=0 / bluray_compat=0 / constrained_intra=0 / fgo=0 / bframes=12 / b_pyramid=2 / b_adapt=2 / b_bias=0 / direct=3 / weightb=1 / open_gop=0 / weightp=2 / keyint=250 / keyint_min=23 / scenecut=40 / intra_refresh=0 / rc_lookahead=40 / rc=2pass / mbtree=0 / bitrate=1818 / ratetol=1.0 / qcomp=0.65 / qpmin=0:0:0 / qpmax=69:69:69 / qpstep=4 / cplxblur=20.0 / qblur=0.5 / vbv_maxrate=50000 / vbv_bufsize=62500 / nal_hrd=none / filler=0 / ip_ratio=1.27 / pb_ratio=1.25 / aq=1:0.80 / aq-sensitivity=10.00 / aq-factor=1.00:1.00:1.00 / aq2=0 / aq3=0
    Language : English
    Default : Yes
    Forced : No
    Audio #1
    ID : 2
    Format : AC-3
    Format/Info : Audio Coding 3
    Mode extension : CM (complete main)
    Format settings, Endianness : Big
    Codec ID : A_AC3
    Duration : 1h 35mn
    Bit rate mode : Constant
    Bit rate : 192 Kbps
    Channel(s) : 2 channels
    Channel positions : Front: L R
    Sampling rate : 48.0 KHz
    Compression mode : Lossy
    Stream size : 131 MiB (9%)
    Title : XiXiDoK, AC3 2.0 ~192 kbps
    Language : Russian
    Default : Yes
    Forced : No
    Audio #2
    ID : 3
    Format : AC-3
    Format/Info : Audio Coding 3
    Mode extension : CM (complete main)
    Format settings, Endianness : Big
    Codec ID : A_AC3
    Duration : 1h 35mn
    Bit rate mode : Constant
    Bit rate : 192 Kbps
    Channel(s) : 2 channels
    Channel positions : Front: L R
    Sampling rate : 48.0 KHz
    Compression mode : Lossy
    Stream size : 131 MiB (9%)
    Title : AC3 2.0 ~192 kbps
    Language : English
    Default : No
    Forced : No
    Text
    ID : 4
    Format : UTF-8
    Codec ID : S_TEXT/UTF8
    Codec ID/Info : UTF-8 Plain Text
    Language : English
    Default : No
    Forced : No
    Menu
    00:00:00.000 : en:Chapter 01
    00:07:44.213 : en:Chapter 02
    00:13:51.247 : en:Chapter 03
    00:18:01.163 : en:Chapter 04
    00:24:30.051 : en:Chapter 05
    00:32:01.961 : en:Chapter 06
    00:37:28.162 : en:Chapter 07
    00:45:49.788 : en:Chapter 08
    00:49:17.162 : en:Chapter 09
    00:55:19.524 : en:Chapter 10
    01:00:19.866 : en:Chapter 11
    01:03:34.894 : en:Chapter 12
    01:10:05.201 : en:Chapter 13
    01:13:34.701 : en:Chapter 14
    01:17:52.209 : en:Chapter 15
    01:25:07.560 : en:Chapter 16

    x264

    x264 [info]: frame I:909 Avg QP:13.54 size: 64186
    x264 [info]: frame P:26820 Avg QP:15.97 size: 21519
    x264 [info]: frame B:108975 Avg QP:17.53 size: 6019
    x264 [info]: consecutive B-frames: 1.4% 1.9% 8.3% 9.2% 17.1% 43.5% 7.5% 4.3% 1.4% 0.7% 1.1% 1.0% 2.5%
    x264 [info]: mb I I16..4: 10.0% 80.8% 9.2%
    x264 [info]: mb P I16..4: 2.0% 7.5% 0.8% P16..4: 37.9% 28.3% 16.7% 0.0% 0.0% skip: 6.9%
    x264 [info]: mb B I16..4: 0.1% 0.2% 0.0% B16..8: 40.7% 11.2% 2.8% direct: 3.8% skip:41.1% L0:48.3% L1:46.4% BI: 5.3%
    x264 [info]: 8x8 transform intra:74.3% inter:60.2%
    x264 [info]: direct mvs spatial:98.6% temporal:1.4%
    x264 [info]: coded y,uvDC,uvAC intra: 77.1% 82.7% 69.4% inter: 19.4% 22.9% 10.0%
    x264 [info]: i16 v,h,dc,p: 51% 12% 12% 25%
    x264 [info]: i8 v,h,dc,ddl,ddr,vr,hd,vl,hu: 7% 6% 10% 11% 15% 13% 13% 12% 13%
    x264 [info]: i4 v,h,dc,ddl,ddr,vr,hd,vl,hu: 6% 5% 5% 13% 17% 15% 14% 12% 14%
    x264 [info]: i8c dc,h,v,p: 51% 20% 15% 14%
    x264 [info]: Weighted P-Frames: Y:2.8% UV:1.6%
    x264 [info]: ref P L0: 43.9% 6.0% 19.2% 7.6% 7.0% 4.6% 4.7% 2.4% 2.5% 2.0% 0.1% 0.0%
    x264 [info]: ref B L0: 63.9% 14.5% 7.9% 4.3% 3.1% 2.8% 2.1% 1.0% 0.3%
    x264 [info]: ref B L1: 92.6% 7.4%
    x264 [info]: kb/s:1812.04

    Скриншоты

    с названием

    Скачать .torrent

    Скачать торрент-файл бесплатно и на максимальной скорости!

    Как скачивать? · Что такое торрент? · Рейтинг и ограничения

    !ВНИМАНИЕ!
    Сайт не распространяет и не хранит электронные версии произведений, а занимается лишь лишь предоставлением доступа к создаваемому пользователями каталогу ссылок на торрент-файлы, которые содержат только списки хеш-сумм, убедительная просьба с жалобами обращаться напрямую к пользователю. Файлы для обмена на трекере предоставлены пользователями сайта, и администрация не несёт ответственности за их содержание. Просьба не заливать файлы, защищенные авторскими правами, а также файлы нелегального содержания!


    _________________
    [Профиль] [ЛС]
    Показать сообщения:    
    Ответить на тему

    Текущее время: Сегодня, в 20:36

    Часовой пояс: GMT + 2



    Вы не можете начинать темы
    Вы не можете отвечать на сообщения
    Вы не можете редактировать свои сообщения
    Вы не можете удалять свои сообщения
    Вы не можете голосовать в опросах
    Вы не можете прикреплять файлы к сообщениям
    Вы не можете скачивать файлы