BitTorrentTracker PerecTracker.org
BitTorrentTracker PerecTracker.org
    
Регистрация  ·  Вход
 
 · 
Забыли пароль?

  • Шанс Эммы / Emma\'s Chance (Анна Элизабет Джеймс / Anna Elizabeth James) [2016, США, драма, семейный, спорт, WEB-DLRip] Dub (iTunes)

    Ответить на тему
     
    Автор Сообщение

    rechyn

    Создавать темы 06-Июл-2016 00:51

           

    [Цитировать]

    Шанс Эммы / Emma's Chance
    Страна: США
    Жанр: драма, семейный, спорт
    Год выпуска: 2016
    Продолжительность: 01:32:37
    Перевод: Профессиональный (дублированный) iTunes
    Cубтитры: нет
    Режиссер: Анна Элизабет Джеймс / Anna Elizabeth James
    В ролях: Грир Грэммер, Джозеф Лоуренс, Мисси Пайл, Дженнифер Бини Тейлор, Кристина Робинсон, Райан МакКэртан, Лия Мари Джонсон, Эмбер Монтана, Шэнна Стронг, Норма Майклс
    Описание: В центре событий картины находится девочка по имени Эмма, занимающаяся общественной деятельностью на ферме по спасению лошадей. Здесь героиня заводит необычную дружбу с лошадью по кличке Шанс, благодаря чему впоследствии в корне пересматривает собственные взгляды на жизнь и находит в себе силы выступить против недоброжелателей ранчо.
    Сэмпл: http://sendfile.su/1247522
    Качество видео: WEB-DLRip
    Формат видео: AVI
    Видео: 720x400 (1.80:1), 23.976 fps, XviD build 50 ~1722 kbps avg, 0.25 bit/pixel
    Аудио: 48 kHz, AC3 Dolby Digital, 3/2 (L,C,R,l,r) + LFE ch, ~384 kbps

    MediaInfo

    General
    Complete name : E:\Zona Downloads\Shans.Emmi.2016.D.WEB-DLRip.avi
    Format : AVI
    Format/Info : Audio Video Interleave
    File size : 1.37 GiB
    Duration : 1h 32mn
    Overall bit rate : 2 116 Kbps
    Movie name : Rustorrents.info
    Writing application : VirtualDubMod 1.5.10.3 | www.virtualdub-fr.org || (build 2550/release)
    Video
    ID : 0
    Format : MPEG-4 Visual
    Format profile : Advanced Simple@L5
    Format settings, BVOP : 2
    Format settings, QPel : No
    Format settings, GMC : No warppoints
    Format settings, Matrix : Custom
    Codec ID : XVID
    Codec ID/Hint : XviD
    Duration : 1h 32mn
    Bit rate : 1 723 Kbps
    Width : 720 pixels
    Height : 400 pixels
    Display aspect ratio : 16:9
    Frame rate : 23.976 fps
    Color space : YUV
    Chroma subsampling : 4:2:0
    Bit depth : 8 bits
    Scan type : Progressive
    Compression mode : Lossy
    Bits/(Pixel*Frame) : 0.249
    Stream size : 1.11 GiB (81%)
    Writing library : XviD 1.2.1 (UTC 2008-12-04)
    Audio
    ID : 1
    Format : AC-3
    Format/Info : Audio Coding 3
    Mode extension : CM (complete main)
    Format settings, Endianness : Big
    Codec ID : 2000
    Duration : 1h 32mn
    Bit rate mode : Constant
    Bit rate : 384 Kbps
    Channel(s) : 6 channels
    Channel positions : Front: L C R, Side: L R, LFE
    Sampling rate : 48.0 KHz
    Bit depth : 16 bits
    Compression mode : Lossy
    Stream size : 254 MiB (18%)
    Alignment : Split accross interleaves
    Interleave, duration : 42 ms (1.00 video frame)
    Interleave, preload duration : 500 ms

    Скриншот c названием фильма

    Скриншоты

    Скачать .torrent

    Скачать торрент-файл бесплатно и на максимальной скорости!

    Как скачивать? · Что такое торрент? · Рейтинг и ограничения

    !ВНИМАНИЕ!
    Сайт не распространяет и не хранит электронные версии произведений, а занимается лишь лишь предоставлением доступа к создаваемому пользователями каталогу ссылок на торрент-файлы, которые содержат только списки хеш-сумм, убедительная просьба с жалобами обращаться напрямую к пользователю. Файлы для обмена на трекере предоставлены пользователями сайта, и администрация не несёт ответственности за их содержание. Просьба не заливать файлы, защищенные авторскими правами, а также файлы нелегального содержания!


    _________________
    [Профиль] [ЛС]
    Показать сообщения:    
    Ответить на тему

    Текущее время: Сегодня, в 04:29

    Часовой пояс: GMT + 2



    Вы не можете начинать темы
    Вы не можете отвечать на сообщения
    Вы не можете редактировать свои сообщения
    Вы не можете удалять свои сообщения
    Вы не можете голосовать в опросах
    Вы не можете прикреплять файлы к сообщениям
    Вы не можете скачивать файлы