BitTorrentTracker PerecTracker.org
BitTorrentTracker PerecTracker.org
    
Регистрация  ·  Вход
 
 · 
Забыли пароль?

  • Шпион / Iron Spy (Алексей Андрианов) [2012, Триллер, детектив, приключения, BDRip-AVC] [GER Transfer] Original (Rus) + Dub (Ger) + Sub (Rus, Ger)

    Ответить на тему
     
    Автор Сообщение

    Flirldrerve

    Создавать темы 05-Июл-2016 20:39

           

    [Цитировать]

    Шпион / Iron Spy
    Слоган: «Остановить неизбежное»
    Страна: Россия
    Жанр: Триллер, детектив, приключения
    Год выпуска: 2012
    Продолжительность: 01:48:26
    Дополнительная аудиодорожка: Немецкий
    Cубтитры: Русские (Форсированные), Немецкие (Полные)--Режиссёр: Алексей Андрианов--В ролях: Данила Козловский, Фёдор Бондарчук, Владимир Епифанцев, Сергей Газаров, Виктор Вержбицкий, Виктория Толстоганова, Анна Чиповская, Алексей Горбунов, Алексей Гаврилов, Екатерина Мельник...--Описание: Весна 1941 года. В центре Москвы разворачивается напряжённый поединок двух разведок. Цель тайной операции Гитлера - дезинформировать Сталина о планах нападения Германии на Советский Союз.
    Старший майор Октябрьский и лейтенант Дорин против гения фашистского шпионажа. Схватка на фоне большой истории, освещенной заревом грядущей войны--Доп. информация: | | Сэмпл--Качество видео: BDRip-AVC
    Формат видео: MKV
    Видео: AVC, 1100x468 (2.35:1), 3332 kbps, 24.000 fps, 0.270 bit/pixel
    Аудио 1: AC3 Dolby Digital, 3/2 (L,C,R,l,r) + LFE ch, 48 kHz, 448 kbps
    Аудио 2: AC3 Dolby Digital, 3/2 (L,C,R,l,r) + LFE ch, 48 kHz, 448 kbps
    Скриншоты

    Запасные скриншоты

    MediaInfo

    x264

    raw [info]: 1100x468p 1:1 @ 10000000/416667 fps (cfr)
    x264 [info]: using SAR=1/1
    x264 [info]: using cpu capabilities: MMX2 SSE2Fast SSSE3 SSE4.2 AVX
    x264 [info]: profile High, level 4.1
    x264 [info]: frame I:1310 Avg QP:16.46 size: 68491
    x264 [info]: frame P:31293 Avg QP:18.07 size: 33230
    x264 [info]: frame B:123547 Avg QP:20.78 size: 12788
    x264 [info]: consecutive B-frames: 2.1% 1.7% 5.1% 15.4% 16.3% 42.7% 7.2% 2.0% 2.7% 1.4% 1.2% 0.9% 0.6% 0.4% 0.4%
    x264 [info]: mb I I16..4: 8.1% 72.9% 19.0%
    x264 [info]: mb P I16..4: 1.9% 16.6% 2.6% P16..4: 35.2% 22.4% 14.8% 0.7% 0.2% skip: 5.6%
    x264 [info]: mb B I16..4: 0.2% 1.9% 0.3% B16..8: 39.8% 12.5% 4.0% direct: 8.0% skip:33.4% L0:44.6% L1:42.3% BI:13.1%
    x264 [info]: 8x8 transform intra:78.1% inter:61.9%
    x264 [info]: coded y,uvDC,uvAC intra: 81.8% 87.0% 73.1% inter: 30.6% 29.5% 7.1%
    x264 [info]: i16 v,h,dc,p: 47% 15% 12% 27%
    x264 [info]: i8 v,h,dc,ddl,ddr,vr,hd,vl,hu: 14% 8% 13% 9% 12% 12% 11% 11% 12%
    x264 [info]: i4 v,h,dc,ddl,ddr,vr,hd,vl,hu: 37% 6% 6% 7% 10% 10% 9% 8% 8%
    x264 [info]: i8c dc,h,v,p: 46% 20% 19% 15%
    x264 [info]: Weighted P-Frames: Y:4.5% UV:2.7%
    x264 [info]: ref P L0: 45.0% 9.6% 17.7% 7.1% 5.9% 4.1% 3.6% 2.0% 1.9% 1.5% 1.6% 0.1% 0.0%
    x264 [info]: ref B L0: 70.8% 12.4% 6.3% 3.2% 2.4% 1.9% 1.4% 0.9% 0.6% 0.2%
    x264 [info]: ref B L1: 93.5% 6.5%
    x264 [info]: kb/s:3331.55
    General
    Unique ID : 182586718361444850079808454101035088582 (0x895CEC3ED8DB18BB8134947070837AC6)
    Complete name : Шпион (2012).mkv
    Format : Matroska
    Format version : Version 4 / Version 2
    File size : 3.20 GiB
    Duration : 1h 48mn
    Overall bit rate : 4 229 Kbps
    Movie name : Шпион / Iron Spy (2012) GER Transfer
    Encoded date : UTC 2016-07-05 13:11:22
    Writing application : mkvmerge v8.1.0 ('Psychedelic Postcard') 64bit
    Writing library : libebml v1.3.1 + libmatroska v1.4.2
    Cover : Yes
    Attachments : cover.jpg
    Video
    ID : 1
    Format : AVC
    Format/Info : Advanced Video Codec
    Format profile : High@L4.1
    Format settings, CABAC : Yes
    Format settings, ReFrames : 11 frames
    Codec ID : V_MPEG4/ISO/AVC
    Duration : 1h 48mn
    Bit rate : 3 332 Kbps
    Width : 1 100 pixels
    Height : 468 pixels
    Display aspect ratio : 2.35:1
    Frame rate mode : Constant
    Frame rate : 24.000 fps
    Color space : YUV
    Chroma subsampling : 4:2:0
    Bit depth : 8 bits
    Scan type : Progressive
    Bits/(Pixel*Frame) : 0.270
    Stream size : 2.52 GiB (79%)
    Title : Шпион (2012) By optik.1557
    Writing library : x264 core 148 r2705kMod 3f5ed56
    Encoding settings : cabac=1 / ref=11 / deblock=1:-3:-2 / analyse=0x3:0x133 / me=umh / subme=10 / psy=1 / fade_compensate=0.00 / psy_rd=1.03:0.05 / mixed_ref=1 / me_range=32 / chroma_me=1 / trellis=2 / 8x8dct=1 / cqm=0 / deadzone=21,11 / fast_pskip=0 / chroma_qp_offset=-3 / threads=6 / lookahead_threads=1 / sliced_threads=0 / nr=0 / decimate=1 / interlaced=0 / bluray_compat=0 / constrained_intra=0 / fgo=0 / bframes=14 / b_pyramid=2 / b_adapt=2 / b_bias=0 / direct=1 / weightb=1 / open_gop=0 / weightp=2 / keyint=250 / keyint_min=23 / scenecut=40 / intra_refresh=0 / rc_lookahead=60 / rc=crf / mbtree=0 / crf=17.8000 / qcomp=0.60 / qpmin=0 / qpmax=69 / qpstep=4 / vbv_maxrate=50000 / vbv_bufsize=62500 / crf_max=0.0 / nal_hrd=none / filler=0 / ip_ratio=1.40 / pb_ratio=1.30 / aq=2:0.90
    Language : German
    Default : Yes
    Forced : No
    Color range : Limited
    Color primaries : BT.709
    Transfer characteristics : BT.709
    Matrix coefficients : BT.709
    Audio #1
    ID : 2
    Format : AC-3
    Format/Info : Audio Coding 3
    Mode extension : CM (complete main)
    Format settings, Endianness : Big
    Codec ID : A_AC3
    Duration : 1h 48mn
    Bit rate mode : Constant
    Bit rate : 448 Kbps
    Channel(s) : 6 channels
    Channel positions : Front: L C R, Side: L R, LFE
    Sampling rate : 48.0 KHz
    Frame rate : 31.250 fps (1536 spf)
    Compression mode : Lossy
    Stream size : 348 MiB (11%)
    Language : Russian
    Default : Yes
    Forced : No
    Audio #2
    ID : 3
    Format : AC-3
    Format/Info : Audio Coding 3
    Mode extension : CM (complete main)
    Format settings, Endianness : Big
    Codec ID : A_AC3
    Duration : 1h 48mn
    Bit rate mode : Constant
    Bit rate : 448 Kbps
    Channel(s) : 6 channels
    Channel positions : Front: L C R, Side: L R, LFE
    Sampling rate : 48.0 KHz
    Frame rate : 31.250 fps (1536 spf)
    Compression mode : Lossy
    Stream size : 348 MiB (11%)
    Language : German
    Default : No
    Forced : No
    Text #1
    ID : 4
    Format : UTF-8
    Codec ID : S_TEXT/UTF8
    Codec ID/Info : UTF-8 Plain Text
    Duration : 1h 42mn
    Bit rate : 2 bps
    Count of elements : 18
    Stream size : 2.23 KiB (0%)
    Title : Форсированные
    Language : Russian
    Default : Yes
    Forced : No
    Text #2
    ID : 5
    Format : UTF-8
    Codec ID : S_TEXT/UTF8
    Codec ID/Info : UTF-8 Plain Text
    Duration : 1h 43mn
    Bit rate : 56 bps
    Count of elements : 948
    Stream size : 42.7 KiB (0%)
    Language : German
    Default : No
    Forced : No
    Menu
    00:00:00.000 : ru:Глава 1
    00:10:22.038 : ru:Глава 2
    00:20:24.723 : ru:Глава 3
    00:30:24.823 : ru:Глава 4
    00:41:08.966 : ru:Глава 5
    00:52:50.376 : ru:Глава 6
    01:02:55.397 : ru:Глава 7
    01:12:49.907 : ru:Глава 8
    01:24:32.401 : ru:Глава 9
    01:34:46.347 : ru:Глава 10
    01:45:11.931 : ru:Глава 11
    Скачать .torrent

    Скачать торрент-файл бесплатно и на максимальной скорости!

    Как скачивать? · Что такое торрент? · Рейтинг и ограничения

    !ВНИМАНИЕ!
    Сайт не распространяет и не хранит электронные версии произведений, а занимается лишь лишь предоставлением доступа к создаваемому пользователями каталогу ссылок на торрент-файлы, которые содержат только списки хеш-сумм, убедительная просьба с жалобами обращаться напрямую к пользователю. Файлы для обмена на трекере предоставлены пользователями сайта, и администрация не несёт ответственности за их содержание. Просьба не заливать файлы, защищенные авторскими правами, а также файлы нелегального содержания!


    _________________
    [Профиль] [ЛС]
    Показать сообщения:    
    Ответить на тему

    Текущее время: Сегодня, в 12:04

    Часовой пояс: GMT + 2



    Вы не можете начинать темы
    Вы не можете отвечать на сообщения
    Вы не можете редактировать свои сообщения
    Вы не можете удалять свои сообщения
    Вы не можете голосовать в опросах
    Вы не можете прикреплять файлы к сообщениям
    Вы не можете скачивать файлы