BitTorrentTracker PerecTracker.org
BitTorrentTracker PerecTracker.org
    
Регистрация  ·  Вход
 
 · 
Забыли пароль?

  • Прирождённые убийцы / Natural Born Killers (Оливер Стоун / Oliver Stone) [1994, США, драма, криминал, BDRip 1080p] [Unrated Director\'s Cut] DVO (Гланц, Королёва) + 2x MVO (Неоклассика, Лазер видео) + 3x AVO + VO + Original Eng + Sub Rus, Eng

    Ответить на тему
     
    Автор Сообщение

    Light

    Создавать темы 05-Июл-2016 20:39

           

    [Цитировать]

    Прирождённые убийцы / Natural Born Killers
    «A bold new film that takes a look at a country seduced by fame, obsessed by crime and consumed by the media»
    Год выпуска: 1994
    Страна: США
    Производство: Alcor Films, Ixtlan Corporation, J D Productions, New Regency Pictures, Regency Enterprises, Warner Bros. Pictures
    Жанр: Драма, криминал
    Продолжительность: 02:02:03
    Перевод 1: Профессиональный (двухголосый закадровый) | Гланц, Королёва
    Перевод 2: Профессиональный (многоголосый закадровый) | Неоклассика (ненормативная лексика)
    Перевод 3: Профессиональный (многоголосый закадровый) | Лазер видео
    Перевод 4: Авторский (одноголосый закадровый) | Гаврилов (поздний)
    Перевод 5: Авторский (одноголосый закадровый) | Гаврилов (ранний)
    Перевод 6: Авторский (одноголосый закадровый) | Горчаков
    Перевод 7: Одноголосый закадровый | Яроцкий (ненормативная лексика)
    Оригинальная аудиодорожка: Английский
    Субтитры: Русские, английские
    Режиссёр: Оливер Стоун
    В ролях: Вуди Харрельсон, Джульетт Льюис, Роберт Дауни мл., Томми Ли Джонс, Том Сайзмор, Родни Дейнджерфилд, Эверетт Куинтон, Джаред Харрис, Прюитт Тэйлор Винс, Эди МакКлёрг и др.
    Описание: Пара молодых влюблённых, Меллори и Микки, словно подражая легендарным Бонни и Клайду, колесит по одноэтажной Америке и убивает всех, кто попадается им на пути. Они обожают друг друга и ненавидят всё остальное человечество. Их хватают и сажают в самую свирепую кутузку.
    Однако же череда нелепых и трагических совпадений даёт парочке прирождённых убийц еще один шанс поубивать всласть. И они им не преминули попользоваться на всю катушку.


    NTb
    Сэмпл
    Качество: BDRip 1080p
    Формат: MKV
    Видео: MPEG-4 AVC: ~14000 kbps / 1920x1080 / 23.976 fps / 16:9
    Аудио: Russian: DTS / 5.1 / 48 kHz / 1509 kbps / 16-bit | Гланц, Королёва
    Аудио: Russian: AC3 / 5.1 / 48 kHz / 384 kbps | Неоклассика (ненормативная лексика)
    Аудио: Russian: AC3 / 2.0 / 48 kHz / 192 kbps | Лазер видео
    Аудио: Russian: DTS / 5.1 / 48 kHz / 1509 kbps / 16-bit | Гаврилов (поздний)
    Аудио: Russian: AC3 / 2.0 / 48 kHz / 192 kbps | Гаврилов (ранний)
    Аудио: Russian: AC3 / 2.0 / 48 kHz / 192 kbps | Горчаков
    Аудио: Russian: AC3 / 5.1 / 48 kHz / 448 kbps | Яроцкий (ненормативная лексика)
    Аудио: English: DTS / 5.1 / 48 kHz / 1509 kbps / 16-bit | Оригинальный

    MediaInfoXP

    GeneralUnique ID : 254667533088213974359252777347310662081 (0xBF972ECAEAFD476BA7F55CB930B3B1C1)Complete name : D:\Natural.Born.Killers.Director.Cut.1994.1080p.BluRay.7xRus.Eng.x264-NTb.mkvFormat : MatroskaFormat version : Version 2File size : 17.4 GiBDuration : 2h 2mnOverall bit rate : 20.4 MbpsMovie name : Natural Born Killers (1994) Unrated DC - Encode by NTbEncoded date : UTC 2016-07-03 11:23:21Writing application : mkvmerge v9.2.0 ('Photograph') 64bitWriting library : libebml v1.3.3 + libmatroska v1.4.4Cover : YesAttachments : cover.jpg
    VideoID : 1Format : AVCFormat/Info : Advanced Video CodecFormat profile : High@L4.1Format settings, CABAC : YesFormat settings, ReFrames : 4 framesCodec ID : V_MPEG4/ISO/AVCDuration : 2h 2mnBit rate : 14.0 MbpsWidth : 1 920 pixelsHeight : 1 080 pixelsDisplay aspect ratio : 16:9Frame rate mode : ConstantFrame rate : 23.976 (24000/1001) fpsColor space : YUVChroma subsampling : 4:2:0Bit depth : 8 bitsScan type : ProgressiveBits/(Pixel*Frame) : 0.282Stream size : 11.6 GiB (67%)Writing library : x264 core 142 r2431+42 c69a006 tMod [8-bit@all X86_64]Encoding settings : cabac=1 / ref=4 / deblock=1:-3:-3 / analyse=0x3:0x133 / me=tesa / subme=10 / psy=1 / fade_compensate=0.00 / psy_rd=1.08:0.00 / mixed_ref=1 / me_range=24 / chroma_me=1 / trellis=2 / 8x8dct=1 / cqm=0 / deadzone=21,11 / fast_pskip=1 / chroma_qp_offset=-2 / threads=12 / lookahead_threads=2 / sliced_threads=0 / nr=0 / decimate=1 / interlaced=0 / bluray_compat=0 / constrained_intra=0 / fgo=0 / bframes=8 / b_pyramid=2 / b_adapt=2 / b_bias=0 / direct=3 / weightb=1 / open_gop=0 / weightp=2 / keyint=250 / keyint_min=23 / scenecut=40 / intra_refresh=0 / rc=2pass / mbtree=0 / bitrate=14000 / ratetol=1.0 / qcomp=0.80 / qpmin=0:0:0 / qpmax=69:69:69 / qpstep=4 / cplxblur=20.0 / qblur=0.5 / ip_ratio=1.40 / pb_ratio=1.30 / aq=4:0.75 / aq-sensitivity=10.00 / aq-factor=1.00:1.00:1.00 / aq2=0 / aq3=0Language : EnglishDefault : YesForced : No
    Audio #1ID : 2Format : DTSFormat/Info : Digital Theater SystemsMode : 16Format settings, Endianness : BigCodec ID : A_DTSDuration : 2h 2mnBit rate mode : ConstantBit rate : 1 509 KbpsChannel(s) : 6 channelsChannel positions : Front: L C R, Side: L R, LFESampling rate : 48.0 KHzFrame rate : 93.750 fps (512 spf)Bit depth : 16 bitsCompression mode : LossyStream size : 1.29 GiB (7%)Title : Гланц и КоролёваLanguage : RussianDefault : YesForced : No
    Audio #2ID : 3Format : AC-3Format/Info : Audio Coding 3Mode extension : CM (complete main)Format settings, Endianness : BigCodec ID : A_AC3Duration : 2h 2mnBit rate mode : ConstantBit rate : 384 KbpsChannel(s) : 6 channelsChannel positions : Front: L C R, Side: L R, LFESampling rate : 48.0 KHzFrame rate : 31.250 fps (1536 spf)Compression mode : LossyStream size : 335 MiB (2%)Title : Многоголосый, НеоклассикаLanguage : RussianDefault : NoForced : No
    Audio #3ID : 4Format : AC-3Format/Info : Audio Coding 3Mode extension : CM (complete main)Format settings, Endianness : BigCodec ID : A_AC3Duration : 2h 2mnBit rate mode : ConstantBit rate : 192 KbpsChannel(s) : 2 channelsChannel positions : Front: L RSampling rate : 48.0 KHzFrame rate : 31.250 fps (1536 spf)Compression mode : LossyStream size : 168 MiB (1%)Title : Многоголосый, Лазер видеоLanguage : RussianDefault : NoForced : No
    Audio #4ID : 5Format : DTSFormat/Info : Digital Theater SystemsMode : 16Format settings, Endianness : BigCodec ID : A_DTSDuration : 2h 2mnBit rate mode : ConstantBit rate : 1 509 KbpsChannel(s) : 6 channelsChannel positions : Front: L C R, Side: L R, LFESampling rate : 48.0 KHzFrame rate : 93.750 fps (512 spf)Bit depth : 16 bitsCompression mode : LossyStream size : 1.29 GiB (7%)Title : Гаврилов-позднийLanguage : RussianDefault : NoForced : No
    Audio #5ID : 6Format : AC-3Format/Info : Audio Coding 3Mode extension : CM (complete main)Format settings, Endianness : BigCodec ID : A_AC3Duration : 2h 2mnBit rate mode : ConstantBit rate : 192 KbpsChannel(s) : 2 channelsChannel positions : Front: L RSampling rate : 48.0 KHzFrame rate : 31.250 fps (1536 spf)Compression mode : LossyStream size : 168 MiB (1%)Title : Гаврилов-раннийLanguage : RussianDefault : NoForced : No
    Audio #6ID : 7Format : AC-3Format/Info : Audio Coding 3Mode extension : CM (complete main)Format settings, Endianness : BigCodec ID : A_AC3Duration : 2h 2mnBit rate mode : ConstantBit rate : 192 KbpsChannel(s) : 2 channelsChannel positions : Front: L RSampling rate : 48.0 KHzFrame rate : 31.250 fps (1536 spf)Compression mode : LossyStream size : 168 MiB (1%)Title : ГорчаковLanguage : RussianDefault : NoForced : No
    Audio #7ID : 8Format : AC-3Format/Info : Audio Coding 3Mode extension : CM (complete main)Format settings, Endianness : BigCodec ID : A_AC3Duration : 2h 2mnBit rate mode : ConstantBit rate : 448 KbpsChannel(s) : 6 channelsChannel positions : Front: L C R, Side: L R, LFESampling rate : 48.0 KHzFrame rate : 31.250 fps (1536 spf)Compression mode : LossyStream size : 391 MiB (2%)Title : ЯроцкийLanguage : RussianDefault : NoForced : No
    Audio #8ID : 9Format : DTSFormat/Info : Digital Theater SystemsMode : 16Format settings, Endianness : BigCodec ID : A_DTSDuration : 2h 2mnBit rate mode : ConstantBit rate : 1 509 KbpsChannel(s) : 6 channelsChannel positions : Front: L C R, Side: L R, LFESampling rate : 48.0 KHzFrame rate : 93.750 fps (512 spf)Bit depth : 16 bitsCompression mode : LossyStream size : 1.29 GiB (7%)Language : EnglishDefault : NoForced : No
    Audio #9ID : 10Format : AC-3Format/Info : Audio Coding 3Mode extension : CM (complete main)Format settings, Endianness : BigCodec ID : A_AC3Duration : 2h 2mnBit rate mode : ConstantBit rate : 192 KbpsChannel(s) : 2 channelsChannel positions : Front: L RSampling rate : 48.0 KHzFrame rate : 31.250 fps (1536 spf)Compression mode : LossyStream size : 168 MiB (1%)Title : CommentaryLanguage : RussianDefault : NoForced : No
    Audio #10ID : 11Format : AC-3Format/Info : Audio Coding 3Mode extension : CM (complete main)Format settings, Endianness : BigCodec ID : A_AC3Duration : 2h 2mnBit rate mode : ConstantBit rate : 192 KbpsChannel(s) : 2 channelsChannel positions : Front: L RSampling rate : 48.0 KHzFrame rate : 31.250 fps (1536 spf)Compression mode : LossyStream size : 168 MiB (1%)Title : CommentaryLanguage : EnglishDefault : NoForced : No
    Text #1ID : 12Format : UTF-8Codec ID : S_TEXT/UTF8Codec ID/Info : UTF-8 Plain TextLanguage : RussianDefault : NoForced : No
    Text #2ID : 13Format : UTF-8Codec ID : S_TEXT/UTF8Codec ID/Info : UTF-8 Plain TextLanguage : EnglishDefault : NoForced : No
    Text #3ID : 14Format : PGSCodec ID : S_HDMV/PGSCodec ID/Info : Picture based subtitle format used on BDs/HD-DVDsLanguage : EnglishDefault : NoForced : No
    Menu00:00:00.000 : en:00:00:00.00000:07:17.979 : en:00:07:17.97900:09:01.541 : en:00:09:01.54100:14:45.343 : en:00:14:45.34300:17:50.111 : en:00:17:50.11100:19:55.694 : en:00:19:55.69400:20:47.246 : en:00:20:47.24600:23:39.084 : en:00:23:39.08400:26:42.184 : en:00:26:42.18400:27:38.991 : en:00:27:38.99100:31:54.913 : en:00:31:54.91300:35:45.685 : en:00:35:45.68500:36:44.327 : en:00:36:44.32700:39:12.517 : en:00:39:12.51700:43:12.173 : en:00:43:12.17300:46:26.158 : en:00:46:26.15800:50:09.590 : en:00:50:09.59000:54:09.121 : en:00:54:09.12100:57:42.459 : en:00:57:42.45901:03:15.625 : en:01:03:15.62501:04:51.054 : en:01:04:51.05401:08:46.539 : en:01:08:46.53901:10:09.330 : en:01:10:09.33001:13:01.752 : en:01:13:01.75201:16:45.559 : en:01:16:45.55901:18:34.001 : en:01:18:34.00101:22:08.090 : en:01:22:08.09001:23:52.903 : en:01:23:52.90301:25:22.659 : en:01:25:22.65901:26:41.405 : en:01:26:41.40501:30:54.157 : en:01:30:54.15701:33:36.486 : en:01:33:36.48601:34:33.042 : en:01:34:33.04201:36:52.932 : en:01:36:52.93201:39:05.439 : en:01:39:05.43901:41:57.069 : en:01:41:57.06901:46:42.938 : en:01:46:42.93801:48:27.543 : en:01:48:27.54301:54:10.218 : en:01:54:10.21801:55:18.120 : en:01:55:18.120

    Скриншот с названием фильма

    Скриншоты

    Скачать .torrent

    Скачать торрент-файл бесплатно и на максимальной скорости!

    Как скачивать? · Что такое торрент? · Рейтинг и ограничения

    !ВНИМАНИЕ!
    Сайт не распространяет и не хранит электронные версии произведений, а занимается лишь лишь предоставлением доступа к создаваемому пользователями каталогу ссылок на торрент-файлы, которые содержат только списки хеш-сумм, убедительная просьба с жалобами обращаться напрямую к пользователю. Файлы для обмена на трекере предоставлены пользователями сайта, и администрация не несёт ответственности за их содержание. Просьба не заливать файлы, защищенные авторскими правами, а также файлы нелегального содержания!


    _________________
    [Профиль] [ЛС]
    Показать сообщения:    
    Ответить на тему

    Текущее время: Сегодня, в 14:29

    Часовой пояс: GMT + 2



    Вы не можете начинать темы
    Вы не можете отвечать на сообщения
    Вы не можете редактировать свои сообщения
    Вы не можете удалять свои сообщения
    Вы не можете голосовать в опросах
    Вы не можете прикреплять файлы к сообщениям
    Вы не можете скачивать файлы