BitTorrentTracker PerecTracker.org
BitTorrentTracker PerecTracker.org
    
Регистрация  ·  Вход
 
 · 
Забыли пароль?

  • Белый клык 2: Легенда о белом волке / White Fang 2: Myth of the White Wolf (Кен Олин / Ken Olin) [1994, США, приключения, семейный, WEB-DL 720p] MVO + 2x AVO + Sub Eng + Original Eng

    Ответить на тему
     
    Автор Сообщение

    Light

    Создавать темы 05-Июл-2016 16:27

           

    [Цитировать]

    Белый клык 2: Легенда о белом волке / White Fang 2: Myth of the White Wolf
    -Страна: США
    Жанр: Приключенческая драма
    Год выпуска: 1994
    Продолжительность: 01:46:10-Перевод 1: Профессиональный (многоголосый закадровый) ОРТ
    Перевод 2: Авторский (одноголосый закадровый) Михалев
    Перевод 3: Авторский (одноголосый закадровый) Горчаков (thx alenavova)
    Cубтитры: русские, английские
    Оригинальная аудиодорожка: английский-Режиссер: Кен Олин / Ken Olin-В ролях: Скотт Бэйрстоу, Чармэйн Крэйг, Аль Харингтон, Энтони Руйвивар, Виктория Расимо, Альфред Молина, Пол Койео
    Описание:
    На Диком Западе издавна существовала легенда о белом волке. Никто не мог разгадать этот миф. Но когда древнее индейское племя попало в беду, и золотоискатель Генри со своим псом по кличке Белый Клык встал на его защиту, таинственное предание воплощается в реальность…-Сэмпл: Скачать-Тип релиза: WEB-DL 720p
    Контейнер: MKV-Видео: 1280x720 (16:9); 3 903 Kbps; 23.976 fps; 0.178 bpp
    Аудио 1: Russian; AC3; 48.0 KHz; 6ch; 384 Kbps MVO ОРТ
    Аудио 2: Russian; AC3; 48.0 KHz; 2ch; 192 Kbps AVO Горчаков
    Аудио 3: Russian; AC3; 48.0 KHz; 2ch; 192 Kbps AVO Михалев
    Аудио 4: English; AC3; 48.0 KHz; 6ch; 384 Kbps

    MediaInfo

    Format : Matroska
    Format version : Version 4 / Version 2
    File size : 3.82 GiB
    Duration : 1h 46mn
    Overall bit rate : 5 156 Kbps
    Movie name : White.Fang.2.Myth.of.the.White.Wolf.1994.720p.WEB-DL.DD5.1.H264-FGT
    Encoded date : UTC 2016-06-10 09:12:20
    Writing application : mkvmerge v8.3.0 ('Over the Horizon') 64bit
    Writing library : libebml v1.3.1 + libmatroska v1.4.2
    Attachements : poster.jpg
    DURATION : 01:46:08.256000000
    NUMBER_OF_FRAMES : 199008
    NUMBER_OF_BYTES : 152838144
    _STATISTICS_WRITING_APP : mkvmerge v8.3.0 ('Over the Horizon') 64bit
    _STATISTICS_WRITING_DATE_UT : 2016-06-10 09:12:20
    _STATISTICS_TAGS : BPS DURATION NUMBER_OF_FRAMES NUMBER_OF_BYTES
    Video
    ID : 1
    Format : AVC
    Format/Info : Advanced Video Codec
    Format profile : High@L3.1
    Format settings, CABAC : No
    Format settings, ReFrames : 2 frames
    Format settings, GOP : N=1
    Codec ID : V_MPEG4/ISO/AVC
    Duration : 1h 46mn
    Bit rate : 3 838 Kbps
    Width : 1 280 pixels
    Height : 688 pixels
    Display aspect ratio : 1.85:1
    Frame rate mode : Constant
    Frame rate : 23.976 fps
    Color space : YUV
    Chroma subsampling : 4:2:0
    Bit depth : 8 bits
    Scan type : Progressive
    Bits/(Pixel*Frame) : 0.182
    Stream size : 2.85 GiB (74%)
    Title : White.Fang.2.Myth.of.the.White.Wolf.1994.720p.WEB-DL.DD5.1.H264-FGT
    Language : English
    Default : Yes
    Forced : No
    Color range : Limited
    Color primaries : BT.709
    Transfer characteristics : BT.709
    Matrix coefficients : BT.709
    Audio #1
    ID : 2
    Format : AC-3
    Format/Info : Audio Coding 3
    Mode extension : CM (complete main)
    Format settings, Endianness : Big
    Codec ID : A_AC3
    Duration : 1h 46mn
    Bit rate mode : Constant
    Bit rate : 448 Kbps
    Channel(s) : 6 channels
    Channel positions : Front: L C R, Side: L R, LFE
    Sampling rate : 48.0 KHz
    Compression mode : Lossy
    Stream size : 340 MiB (9%)
    Title : MVO ОРТ
    Language : Russian
    Default : Yes
    Forced : No
    Audio #2
    ID : 3
    Format : AC-3
    Format/Info : Audio Coding 3
    Mode extension : CM (complete main)
    Format settings, Endianness : Big
    Codec ID : A_AC3
    Duration : 1h 46mn
    Bit rate mode : Constant
    Bit rate : 192 Kbps
    Channel(s) : 2 channels
    Channel positions : Front: L R
    Sampling rate : 48.0 KHz
    Compression mode : Lossy
    Stream size : 146 MiB (4%)
    Title : AVO Михалев
    Language : Russian
    Default : No
    Forced : No
    Audio #3
    ID : 4
    Format : AC-3
    Format/Info : Audio Coding 3
    Mode extension : CM (complete main)
    Format settings, Endianness : Big
    Codec ID : A_AC3
    Duration : 1h 46mn
    Bit rate mode : Constant
    Bit rate : 192 Kbps
    Channel(s) : 2 channels
    Channel positions : Front: L R
    Sampling rate : 48.0 KHz
    Compression mode : Lossy
    Stream size : 146 MiB (4%)
    Title : AVO Горчаков
    Language : Russian
    Default : No
    Forced : No
    Audio #4
    ID : 5
    Format : AC-3
    Format/Info : Audio Coding 3
    Mode extension : CM (complete main)
    Format settings, Endianness : Big
    Codec ID : A_AC3
    Duration : 1h 46mn
    Bit rate mode : Constant
    Bit rate : 384 Kbps
    Channel(s) : 6 channels
    Channel positions : Front: L C R, Side: L R, LFE
    Sampling rate : 48.0 KHz
    Compression mode : Lossy
    Stream size : 292 MiB (7%)
    Title : White.Fang.2.Myth.of.the.White.Wolf.1994.720p.WEB-DL.DD5.1.H264-FGT
    Language : English
    Default : No
    Forced : No
    Text
    ID : 6
    Format : UTF-8
    Codec ID : S_TEXT/UTF8
    Codec ID/Info : UTF-8 Plain Text
    Language : English
    Default : No
    Forced : No

    Скриншоты

    Скачать .torrent

    Скачать торрент-файл бесплатно и на максимальной скорости!

    Как скачивать? · Что такое торрент? · Рейтинг и ограничения

    !ВНИМАНИЕ!
    Сайт не распространяет и не хранит электронные версии произведений, а занимается лишь лишь предоставлением доступа к создаваемому пользователями каталогу ссылок на торрент-файлы, которые содержат только списки хеш-сумм, убедительная просьба с жалобами обращаться напрямую к пользователю. Файлы для обмена на трекере предоставлены пользователями сайта, и администрация не несёт ответственности за их содержание. Просьба не заливать файлы, защищенные авторскими правами, а также файлы нелегального содержания!


    _________________
    [Профиль] [ЛС]
    Показать сообщения:    
    Ответить на тему

    Текущее время: Сегодня, в 11:03

    Часовой пояс: GMT + 2



    Вы не можете начинать темы
    Вы не можете отвечать на сообщения
    Вы не можете редактировать свои сообщения
    Вы не можете удалять свои сообщения
    Вы не можете голосовать в опросах
    Вы не можете прикреплять файлы к сообщениям
    Вы не можете скачивать файлы