BitTorrentTracker PerecTracker.org
BitTorrentTracker PerecTracker.org
    
Регистрация  ·  Вход
 
 · 
Забыли пароль?

  • Официантка / Waitress (Эдриенн Шелли / Adrienne Shelly) [2007, США, драма, комедия, мелодрама, WEB-DL 720p] 2x MVO + Sub Rus, Eng + Original Eng

    Ответить на тему
     
    Автор Сообщение

    Light

    Создавать темы 05-Июл-2016 16:27

           

    [Цитировать]

    Официантка / Waitress
    -Страна: США
    Жанр: драма, комедия, мелодрама
    Год выпуска: 2007
    Продолжительность: 01:30:19-Перевод 1: Профессиональный (многоголосый, закадровый)
    Перевод 2: Профессиональный (многоголосый, закадровый) 1 Канал
    Cубтитры: русские, английские
    Оригинальная аудиодорожка: английский-Режиссер: Эдриенн Шелли / Adrienne Shelly-В ролях: Кери Рассел, Натан Филлион, Черил Хайнс, Эдриенн Шелли, Эдди Джемисон, Джереми Систо, Энди Гриффит-Описание:
    Беременная официантка Дженна работает в скромной закусочной «Обед у Джо». Разнося по столикам заказы, Дженна придумывает новые рецепты пирогов. Её мечта — выиграть соревнования по кулинарному искусству. Но это лишь мечты. Ревнивец-муж Эрл не желает отпускать супругу. Новость о беременности, как гром среди ясного неба. Рецепт пирога «Я не хочу ребёнка от Эрла» не заставил себя долго ждать. Единственная отрада — симпатичный доктор Поматтер, недавно прибывший в город. Он женат, но разве это проблема?..-Сэмпл: Скачать-Тип релиза: WEB-DL 720p
    Контейнер: MKV-Видео: 1 272x720 (16:9); 4 187 Kbps; 23.976 fps; 0.190 bpp
    Аудио 1: Russian; AC3; 48.0 KHz; 6ch; 384 Kbps MVO
    Аудио 2: Russian; AC3; 48.0 KHz; 2ch; 192 Kbps MVO 1 Канал
    Аудио 3: English; AC3; 48.0 KHz; 6ch; 384 Kbps

    MediaInfo

    Format : Matroska
    Format version : Version 4 / Version 2
    File size : 3.96 GiB
    Duration : 1h 47mn
    Overall bit rate : 5 252 Kbps
    Encoded date : UTC 2016-05-21 16:35:29
    Writing application : mkvmerge v8.3.0 ('Over the Horizon') 64bit
    Writing library : libebml v1.3.1 + libmatroska v1.4.2
    Attachements : poster.jpg
    DURATION : 01:47:49.408000000
    NUMBER_OF_FRAMES : 202169
    NUMBER_OF_BYTES : 155265792
    _STATISTICS_WRITING_APP : mkvmerge v8.3.0 ('Over the Horizon') 64bit
    _STATISTICS_WRITING_DATE_UT : 2016-05-21 16:35:29
    _STATISTICS_TAGS : BPS DURATION NUMBER_OF_FRAMES NUMBER_OF_BYTES
    Video
    ID : 1
    Format : AVC
    Format/Info : Advanced Video Codec
    Format profile : High@L3.1
    Format settings, CABAC : No
    Format settings, ReFrames : 2 frames
    Codec ID : V_MPEG4/ISO/AVC
    Duration : 1h 47mn
    Bit rate : 4 187 Kbps
    Width : 1 272 pixels
    Height : 720 pixels
    Display aspect ratio : 16:9
    Frame rate mode : Constant
    Frame rate : 23.976 fps
    Color space : YUV
    Chroma subsampling : 4:2:0
    Bit depth : 8 bits
    Scan type : Progressive
    Bits/(Pixel*Frame) : 0.191
    Stream size : 3.15 GiB (80%)
    Language : English
    Default : Yes
    Forced : No
    Color range : Limited
    Color primaries : BT.709
    Transfer characteristics : BT.709
    Matrix coefficients : BT.709
    Audio #1
    ID : 2
    Format : AC-3
    Format/Info : Audio Coding 3
    Mode extension : CM (complete main)
    Format settings, Endianness : Big
    Codec ID : A_AC3
    Duration : 1h 47mn
    Bit rate mode : Constant
    Bit rate : 384 Kbps
    Channel(s) : 6 channels
    Channel positions : Front: L C R, Side: L R, LFE
    Sampling rate : 48.0 KHz
    Compression mode : Lossy
    Stream size : 296 MiB (7%)
    Title : MVO
    Language : Russian
    Default : Yes
    Forced : No
    Audio #2
    ID : 3
    Format : AC-3
    Format/Info : Audio Coding 3
    Mode extension : CM (complete main)
    Format settings, Endianness : Big
    Codec ID : A_AC3
    Duration : 1h 47mn
    Bit rate mode : Constant
    Bit rate : 192 Kbps
    Channel(s) : 2 channels
    Channel positions : Front: L R
    Sampling rate : 48.0 KHz
    Compression mode : Lossy
    Stream size : 148 MiB (4%)
    Title : MVO 1 Канал
    Language : Russian
    Default : No
    Forced : No
    Audio #3
    ID : 4
    Format : AC-3
    Format/Info : Audio Coding 3
    Mode extension : CM (complete main)
    Format settings, Endianness : Big
    Codec ID : A_AC3
    Duration : 1h 47mn
    Bit rate mode : Constant
    Bit rate : 384 Kbps
    Channel(s) : 6 channels
    Channel positions : Front: L C R, Side: L R, LFE
    Sampling rate : 48.0 KHz
    Compression mode : Lossy
    Stream size : 296 MiB (7%)
    Language : English
    Default : No
    Forced : No
    Text #1
    ID : 5
    Format : UTF-8
    Codec ID : S_TEXT/UTF8
    Codec ID/Info : UTF-8 Plain Text
    Language : Russian
    Default : No
    Forced : No
    Text #2
    ID : 6
    Format : UTF-8
    Codec ID : S_TEXT/UTF8
    Codec ID/Info : UTF-8 Plain Text
    Language : English
    Default : No
    Forced : No
    Menu
    00:00:00.000 : en:Main Titles/Two Lines
    00:05:44.000 : en:Meeting Earl
    00:09:08.000 : en:Confirmation
    00:13:16.000 : en:Old Joe
    00:19:20.000 : en:Escape Talk
    00:22:11.000 : en:Pie Talk
    00:25:37.000 : en:Reluctant Lover
    00:31:17.000 : en:Seeing The Doctor
    00:37:46.000 : en:Smudged Lipstick
    00:41:03.000 : en:Letter To Baby
    00:45:10.000 : en:Abuse
    00:48:45.000 : en:Doctor's Care
    00:52:14.000 : en:New Outlook
    00:55:50.000 : en:Different Doctor
    00:59:56.000 : en:Advice And Pie
    01:03:22.000 : en:Affairs
    01:06:35.000 : en:Relationships
    01:10:38.000 : en:House Call
    01:17:43.000 : en:Joe's Advice
    01:24:09.000 : en:Caught
    01:27:47.000 : en:Escape Interrupted
    01:30:09.000 : en:Lulu
    01:36:43.000 : en:Unexpected Gift
    01:41:59.000 : en:Starting Fresh/End Titles

    Скриншоты

    Скачать .torrent

    Скачать торрент-файл бесплатно и на максимальной скорости!

    Как скачивать? · Что такое торрент? · Рейтинг и ограничения

    !ВНИМАНИЕ!
    Сайт не распространяет и не хранит электронные версии произведений, а занимается лишь лишь предоставлением доступа к создаваемому пользователями каталогу ссылок на торрент-файлы, которые содержат только списки хеш-сумм, убедительная просьба с жалобами обращаться напрямую к пользователю. Файлы для обмена на трекере предоставлены пользователями сайта, и администрация не несёт ответственности за их содержание. Просьба не заливать файлы, защищенные авторскими правами, а также файлы нелегального содержания!


    _________________
    [Профиль] [ЛС]
    Показать сообщения:    
    Ответить на тему

    Текущее время: Сегодня, в 12:50

    Часовой пояс: GMT + 2



    Вы не можете начинать темы
    Вы не можете отвечать на сообщения
    Вы не можете редактировать свои сообщения
    Вы не можете удалять свои сообщения
    Вы не можете голосовать в опросах
    Вы не можете прикреплять файлы к сообщениям
    Вы не можете скачивать файлы