BitTorrentTracker PerecTracker.org
BitTorrentTracker PerecTracker.org
    
Регистрация  ·  Вход
 
 · 
Забыли пароль?

  • Ожидается мистраль / Каникулы в Провансе / Лето в Провансе / Совет мистраля / Avis de mistral (Роза Бош / Rose Bosch) [2014, Франция, драма, комедия, HDRip] MVO (1 канал)

    Ответить на тему
     
    Автор Сообщение

    Light

    Создавать темы 05-Июл-2016 12:15

           

    [Цитировать]

    Ожидается мистраль / Каникулы в Провансе / Лето в Провансе / Совет мистраля / Avis de mistral
    Страна: Франция
    Жанр: драма, комедия
    Год выпуска: 2014
    Продолжительность: 01:43:54
    Перевод: Профессиональный (многоголосый закадровый) 1 канал
    Cубтитры: нет
    Режиссер: Роза Бош / Rose Bosch
    В ролях: Жан Рено, Анна Гальена, Хло Жуанне, Юго Дессью, Ор Атика, Лука Пелиссье, Том Либ, Жан-Мишель Нуаре, Юг Офрей, Шарлотта де Тюркейм, Фабьян Байярди, Лоран Фернандес и др.
    Описание: Лиа, Адриен и их от рождения глухой младший брат Тео отправляются на лето в Прованс к своему дедушке Полю, которого они никогда не видели раньше из-за старой семейной ссоры. Это совсем не то, о чём они мечтали. Особенно после того как их отец объявил вчера о том, что уходит из дома.
    Менее чем через двадцать четыре часа произойдёт столкновение разных поколений между подростками и дедушкой, которого они считали ненормальным. И ошибались. Бурное прошлое выйдет наружу, и все увидят Поля далёких 70-х. В течение одного лета обоим поколениям предстоит познать и понять друг друга.
    Релиз от Megapeer
    Сэмпл: http://multi-up.com/1108336
    Качество видео: HDRip (Исходник: Avis.De.Mistral.2014.P.BDRip.720p)
    Формат видео: AVI
    Видео: 688x288 (2.39:1), 24 fps, XviD build 73 ~873 kbps avg, 0.21 bit/pixel
    Аудио: MP3, 48,0 КГц, 2 ch, 128 kbps

    MediaInfo

    ОбщееПолное имя : D:\Avis.De.Mistral.2014.P.HDRip.745MB.aviФормат : AVIФормат/Информация : Audio Video InterleaveРазмер файла : 748 МбайтПродолжительность : 1 ч. 43 м.Общий поток : 1007 Кбит/сек
    ВидеоИдентификатор : 0Формат : MPEG-4 VisualПрофиль формата : Advanced Simple@L5Параметр BVOP формата : 1Параметр QPel формата : НетПараметр GMC формата : Без точки переходаПараметр матрицы формата : ВыборочнаяИдентификатор кодека : XVIDИдентификатор кодека/Подсказка : XviDПродолжительность : 1 ч. 43 м.Битрейт : 873 Кбит/секШирина : 688 пикселейВысота : 288 пикселейСоотношение сторон : 2,40:1Частота кадров : 24,000 кадра/секЦветовое пространство : YUVСубдискретизация насыщенности : 4:2:0Битовая глубина : 8 битТип развёртки : ПрогрессивнаяМетод сжатия : С потерямиБит/(Пиксели*Кадры) : 0.184Размер потока : 649 Мбайт (87%)Библиотека кодирования : XviD 73
    АудиоИдентификатор : 1Формат : MPEG AudioВерсия формата : Version 1Профиль формата : Layer 3Режим : Joint stereoРасширение режима : MS StereoИдентификатор кодека : 55Идентификатор кодека/Подсказка : MP3Продолжительность : 1 ч. 43 м.Вид битрейта : ПостоянныйБитрейт : 128 Кбит/секКаналы : 2 каналаЧастота : 48,0 КГцМетод сжатия : С потерямиРазмер потока : 95,1 Мбайт (13%)Выравнивание : Соединение по промежуткамПродолжительность промежутка : 167 мс. (4,00 видеокадра)Время предзагрузки промежутка : 216 мс.Заголовок : PБиблиотека кодирования : LAME3.99rНастройки программы : -m j -V 4 -q 2 -lowpass 17 -b 128

    Скриншоты

    Скачать .torrent

    Скачать торрент-файл бесплатно и на максимальной скорости!

    Как скачивать? · Что такое торрент? · Рейтинг и ограничения

    !ВНИМАНИЕ!
    Сайт не распространяет и не хранит электронные версии произведений, а занимается лишь лишь предоставлением доступа к создаваемому пользователями каталогу ссылок на торрент-файлы, которые содержат только списки хеш-сумм, убедительная просьба с жалобами обращаться напрямую к пользователю. Файлы для обмена на трекере предоставлены пользователями сайта, и администрация не несёт ответственности за их содержание. Просьба не заливать файлы, защищенные авторскими правами, а также файлы нелегального содержания!


    _________________
    [Профиль] [ЛС]
    Показать сообщения:    
    Ответить на тему

    Текущее время: Сегодня, в 06:10

    Часовой пояс: GMT + 2



    Вы не можете начинать темы
    Вы не можете отвечать на сообщения
    Вы не можете редактировать свои сообщения
    Вы не можете удалять свои сообщения
    Вы не можете голосовать в опросах
    Вы не можете прикреплять файлы к сообщениям
    Вы не можете скачивать файлы