BitTorrentTracker PerecTracker.org
BitTorrentTracker PerecTracker.org
    
Регистрация  ·  Вход
 
 · 
Забыли пароль?

  • Идеальный побег / A Perfect Getaway (Дэвид Туи / David Twohy) [2009, США, триллер, детектив, приключения, BDRip 1080p] [Director\'s Cut] 2x AVO (Дольский, Немахов) + Original Eng + Sub Rus, Eng

    Ответить на тему
     
    Автор Сообщение

    Light

    Создавать темы 04-Июл-2016 19:30

           

    [Цитировать]

    Идеальный побег / A Perfect Getaway [Director's Cut]
    Страна: США
    Жанр: триллер, детектив, приключения
    Год выпуска: 2009
    Продолжительность: 01:47:39
    Перевод 1: Авторский (одноголосый закадровый) Андрей Дольский
    Перевод 2: Авторский (одноголосый закадровый) Юрий Немахов
    Оригинальная аудиодорожка: английский
    Cубтитры: английские, русские
    Режиссер: Дэвид Туи / David Twohy
    В ролях: Стив Зан, Тимоти Олифант, Милла Йовович, Киле Санчез, Марли Шелтон, Крис Хемсворт, Энтони Руйвивар, Дейл Дикки, Питер Нэви Туясосопо, Венди Браун
    Описание: Медовый месяц — самое счастливое время для молодоженов. Они — красивая пара, добившаяся успеха в жизни и впереди ожидающая только счастья и радости! Их свадебное путешествие на Гавайи похоже на сказку. Правда, все это омрачается грозными сообщениями о том, что на острове, куда они отправились, орудуют серийные убийцы.
    Сэмпл: https://yadi.sk/i/TMkYl-Ufswrf9
    Качество видео: BDRip 1080p
    Формат видео: MKV
    Исходник: BDRemux (взят с kinozal с раздачи ylnian)
    Видео: H.264; 1920x816 (2,35:1); 23,976 fps; 10,6 mbps
    Аудио 1: DTS; 48 KHz; 1509 kbps; 6 channels (Дольский)
    Аудио 2: DTS; 48 KHz; 1509 kbps; 6 channels (Немахов)
    Аудио 3: DTS; 48 KHz; 1509 kbps; 6 channels (Оригинал)
    Формат субтитров: softsub (SRT)
    Автор рипа: JPriest

    MediaInfo

    Общее
    Уникальный идентификатор : 216850753400388230730417959359486910394 (0xA323EF9A012EAF88BEBD41F0CBAC5FBA)
    Полное имя : D:\MY VIDEO\A.Perfect.Getaway.2009.Director's.Cut.BDRip.1080p.mkv
    Формат : Matroska
    Версия формата : Version 4 / Version 2
    Размер файла : 11,4 Гбайт
    Продолжительность : 1 ч. 47 м.
    Общий поток : 15,1 Мбит/сек
    Дата кодирования : UTC 2016-07-01 15:56:36
    Программа кодирования : mkvmerge v8.2.0 ('World of Adventure') 64bit
    Библиотека кодирования : libebml v1.3.1 + libmatroska v1.4.2
    Видео
    Идентификатор : 1
    Формат : AVC
    Формат/Информация : Advanced Video Codec
    Профиль формата : High@L4
    Параметр CABAC формата : Да
    Параметр ReFrames формата : 5 кадров
    Идентификатор кодека : V_MPEG4/ISO/AVC
    Продолжительность : 1 ч. 47 м.
    Битрейт : 10,6 Мбит/сек
    Ширина : 1920 пикселей
    Высота : 816 пикселей
    Соотношение сторон : 2,35:1
    Режим частоты кадров : Постоянный
    Частота кадров : 23,976 (24000/1001) кадра/сек
    Цветовое пространство : YUV
    Субдискретизация насыщенности : 4:2:0
    Битовая глубина : 8 бит
    Тип развёртки : Прогрессивная
    Бит/(Пиксели*Кадры) : 0.282
    Размер потока : 7,97 Гбайт (70%)
    Библиотека кодирования : x264 core 148 r2638 7599210
    Настройки программы : cabac=1 / ref=5 / deblock=1:-3:-3 / analyse=0x3:0x113 / me=umh / subme=9 / psy=1 / psy_rd=1.00:0.00 / mixed_ref=1 / me_range=32 / chroma_me=1 / trellis=0 / 8x8dct=1 / cqm=0 / deadzone=21,11 / fast_pskip=1 / chroma_qp_offset=2 / threads=9 / lookahead_threads=2 / sliced_threads=0 / nr=0 / decimate=1 / interlaced=0 / bluray_compat=0 / constrained_intra=0 / bframes=10 / b_pyramid=2 / b_adapt=2 / b_bias=0 / direct=3 / weightb=1 / open_gop=0 / weightp=2 / keyint=240 / keyint_min=23 / scenecut=45 / intra_refresh=0 / rc=crf / mbtree=0 / crf=19.4 / qcomp=0.66 / qpmin=0 / qpmax=69 / qpstep=4 / ip_ratio=1.40 / pb_ratio=1.30 / aq=1:1.00
    Default : Да
    Forced : Нет
    Аудио #1
    Идентификатор : 2
    Формат : DTS
    Формат/Информация : Digital Theater Systems
    Режим : 16
    Параметр Endianness формата : Big
    Идентификатор кодека : A_DTS
    Продолжительность : 1 ч. 47 м.
    Вид битрейта : Постоянный
    Битрейт : 1509 Кбит/сек
    Каналы : 6 каналов
    Расположение каналов : Front: L C R, Side: L R, LFE
    Частота : 48,0 КГц
    Частота кадров : 93,750 кадра/сек (512 spf)
    Битовая глубина : 24 бит
    Метод сжатия : С потерями
    Размер потока : 1,13 Гбайт (10%)
    Заголовок : Дольский
    Язык : Russian
    Default : Да
    Forced : Нет
    Аудио #2
    Идентификатор : 3
    Формат : DTS
    Формат/Информация : Digital Theater Systems
    Режим : 16
    Параметр Endianness формата : Big
    Идентификатор кодека : A_DTS
    Продолжительность : 1 ч. 47 м.
    Вид битрейта : Постоянный
    Битрейт : 1509 Кбит/сек
    Каналы : 6 каналов
    Расположение каналов : Front: L C R, Side: L R, LFE
    Частота : 48,0 КГц
    Частота кадров : 93,750 кадра/сек (512 spf)
    Битовая глубина : 24 бит
    Метод сжатия : С потерями
    Размер потока : 1,13 Гбайт (10%)
    Заголовок : Немахов
    Язык : Russian
    Default : Нет
    Forced : Нет
    Аудио #3
    Идентификатор : 4
    Формат : DTS
    Формат/Информация : Digital Theater Systems
    Режим : 16
    Параметр Endianness формата : Big
    Идентификатор кодека : A_DTS
    Продолжительность : 1 ч. 47 м.
    Вид битрейта : Постоянный
    Битрейт : 1509 Кбит/сек
    Каналы : 6 каналов
    Расположение каналов : Front: L C R, Side: L R, LFE
    Частота : 48,0 КГц
    Частота кадров : 93,750 кадра/сек (512 spf)
    Битовая глубина : 24 бит
    Метод сжатия : С потерями
    Размер потока : 1,13 Гбайт (10%)
    Заголовок : Оригинал
    Язык : English
    Default : Нет
    Forced : Нет
    Текст #1
    Идентификатор : 5
    Формат : UTF-8
    Идентификатор кодека : S_TEXT/UTF8
    Идентификатор кодека/Информация : UTF-8 Plain Text
    Продолжительность : 1 ч. 42 м.
    Битрейт : 62 бит/сек
    Count of elements : 1375
    Размер потока : 46,8 Кбайт (0%)
    Язык : English
    Default : Да
    Forced : Нет
    Текст #2
    Идентификатор : 6
    Формат : UTF-8
    Идентификатор кодека : S_TEXT/UTF8
    Идентификатор кодека/Информация : UTF-8 Plain Text
    Продолжительность : 1 ч. 42 м.
    Битрейт : 85 бит/сек
    Count of elements : 1381
    Размер потока : 64,1 Кбайт (0%)
    Язык : Russian
    Default : Нет
    Forced : Нет
    Меню
    00:00:00.000 : en:00:00:00.000
    00:06:16.291 : en:00:06:16.291
    00:10:20.870 : en:00:10:20.870
    00:15:23.087 : en:00:15:23.087
    00:21:15.731 : en:00:21:15.731
    00:24:38.977 : en:00:24:38.977
    00:32:16.099 : en:00:32:16.099
    00:37:31.623 : en:00:37:31.623
    00:42:53.820 : en:00:42:53.820
    00:47:56.414 : en:00:47:56.414
    00:55:06.844 : en:00:55:06.844
    00:59:09.670 : en:00:59:09.670
    01:03:08.242 : en:01:03:08.242
    01:07:09.817 : en:01:07:09.817
    01:14:28.463 : en:01:14:28.463
    01:20:50.761 : en:01:20:50.761
    01:24:50.083 : en:01:24:50.083
    01:31:53.216 : en:01:31:53.216
    01:38:45.877 : en:01:38:45.877
    01:43:28.534 : en:01:43:28.534

    log x264

    --input-res 1920x816 --input-csp i420
    --[Information] [01.07.2016 11:10:11] Standard error stream
    ---[Information] [01.07.2016 11:10:22] raw [info]: 1920x816p 1:1 @ 24000/1001 fps (cfr)
    ---[Information] [01.07.2016 11:10:22] x264 [info]: using SAR=1/1
    ---[Information] [01.07.2016 11:10:22] x264 [info]: using cpu capabilities: MMX2 SSE2Fast LZCNT
    ---[Information] [01.07.2016 11:10:22] x264 [info]: profile High, level 4.0
    ---[Information] [01.07.2016 18:11:19] x264 [info]: frame I:1081 Avg QP:18.20 size:175253
    ---[Information] [01.07.2016 18:11:19] x264 [info]: frame P:34930 Avg QP:19.41 size: 88361
    ---[Information] [01.07.2016 18:11:19] x264 [info]: frame B:118866 Avg QP:21.35 size: 44470
    ---[Information] [01.07.2016 18:11:19] x264 [info]: consecutive B-frames: 2.5% 3.4% 4.9% 30.2% 10.4% 41.5% 2.4% 2.9% 0.5% 1.1% 0.2%
    ---[Information] [01.07.2016 18:11:19] x264 [info]: mb I I16..4: 8.6% 71.8% 19.6%
    ---[Information] [01.07.2016 18:11:19] x264 [info]: mb P I16..4: 2.5% 22.3% 4.7% P16..4: 31.4% 23.1% 9.9% 0.0% 0.0% skip: 6.0%
    ---[Information] [01.07.2016 18:11:19] x264 [info]: mb B I16..4: 0.3% 3.0% 0.7% B16..8: 46.5% 14.1% 3.5% direct:10.7% skip:21.3% L0:44.2% L1:44.0% BI:11.7%
    ---[Information] [01.07.2016 18:11:19] x264 [info]: 8x8 transform intra:75.3% inter:39.2%
    ---[Information] [01.07.2016 18:11:19] x264 [info]: direct mvs spatial:100.0% temporal:0.0%
    ---[Information] [01.07.2016 18:11:19] x264 [info]: coded y,uvDC,uvAC intra: 95.2% 66.7% 31.7% inter: 42.2% 13.9% 0.7%
    ---[Information] [01.07.2016 18:11:19] x264 [info]: i16 v,h,dc,p: 12% 9% 10% 69%
    ---[Information] [01.07.2016 18:11:19] x264 [info]: i8 v,h,dc,ddl,ddr,vr,hd,vl,hu: 7% 8% 5% 11% 15% 14% 15% 13% 14%
    ---[Information] [01.07.2016 18:11:19] x264 [info]: i4 v,h,dc,ddl,ddr,vr,hd,vl,hu: 6% 6% 2% 10% 16% 15% 16% 13% 16%
    ---[Information] [01.07.2016 18:11:19] x264 [info]: i8c dc,h,v,p: 33% 27% 19% 21%
    ---[Information] [01.07.2016 18:11:19] x264 [info]: Weighted P-Frames: Y:12.5% UV:8.8%
    ---[Information] [01.07.2016 18:11:19] x264 [info]: ref P L0: 47.4% 13.7% 20.4% 10.2% 7.4% 0.8% 0.1%
    ---[Information] [01.07.2016 18:11:19] x264 [info]: ref B L0: 78.4% 15.2% 5.1% 1.3%
    ---[Information] [01.07.2016 18:11:19] x264 [info]: ref B L1: 92.1% 7.9%
    ---[Information] [01.07.2016 18:11:19] x264 [info]: kb/s:10603.51
    ---[Information] [01.07.2016 18:11:19] encoded 154877 frames, 6.13 fps, 10603.51 kb/s

    Скриншоты

    Скачать .torrent

    Скачать торрент-файл бесплатно и на максимальной скорости!

    Как скачивать? · Что такое торрент? · Рейтинг и ограничения

    !ВНИМАНИЕ!
    Сайт не распространяет и не хранит электронные версии произведений, а занимается лишь лишь предоставлением доступа к создаваемому пользователями каталогу ссылок на торрент-файлы, которые содержат только списки хеш-сумм, убедительная просьба с жалобами обращаться напрямую к пользователю. Файлы для обмена на трекере предоставлены пользователями сайта, и администрация не несёт ответственности за их содержание. Просьба не заливать файлы, защищенные авторскими правами, а также файлы нелегального содержания!


    _________________
    [Профиль] [ЛС]
    Показать сообщения:    
    Ответить на тему

    Текущее время: Сегодня, в 02:08

    Часовой пояс: GMT + 2



    Вы не можете начинать темы
    Вы не можете отвечать на сообщения
    Вы не можете редактировать свои сообщения
    Вы не можете удалять свои сообщения
    Вы не можете голосовать в опросах
    Вы не можете прикреплять файлы к сообщениям
    Вы не можете скачивать файлы