BitTorrentTracker PerecTracker.org
BitTorrentTracker PerecTracker.org
    
Регистрация  ·  Вход
 
 · 
Забыли пароль?

  • Всевидящее око / Eye in the Sky (Гэвин Худ / Gavin Hood) [2015, Великобритания, ЮАР, триллер, драма, военный, BDRip 1080p] MVO (iTunes) + Original Eng + Sub Rus, Eng

    Ответить на тему
     
    Автор Сообщение

    Light

    Создавать темы 04-Июл-2016 19:30

           

    [Цитировать]

    Всевидящее око / Eye in the Sky
    Год выпуска: 2015
    Страна: Великобритания, ЮАР
    Жанр: триллер, драма, военный
    Продолжительность: 01:42:45
    Перевод: Профессиональный (многоголосый, закадровый) iTunes
    Субтитры: Russian (Forced), English
    Оригинальная аудиодорожка: английский
    Режиссер: Гэвин Худ
    В ролях: Хелен Миррен, Файза Хассан, Аиша Такоу, Армаан Хаггио, Боб Чаппель, Алекс Гафлавент, Аарон Пол, Бабу Сизей, Карл Бьюкс, Кейт Ликориш, Ричард Стефенсон, Габриэлла Пинто, Тайлен Рэй, Хуссейн Дахир, Монде Сибизи, Уоррен Масемола, Ахмед Мохамед Али, Алан Рикман
    Описание: Война изменилась навсегда. Новые технологии дронов позволяют проникать в ранее недоступные места и предотвращать массовые террористические атаки. Но когда завершение операции становится таким же легким как нажатие одной кнопки, встает самый трудный вопрос. Погубит ли одно решение десятки мирных жителей или же спасет тысячи жизней?
    Качество: BDRip
    Формат: Matroska
    Видео: 1920x808 23.976 fps MPEG-4 AVC ~9000 kbps
    Аудио 1: Russian: 48 kHz, AC3, 5.1, ~384.00 kbps (Многоголосый, iTunes)
    Аудио 1: English: 48 kHz, AC3, 5.1, ~640.00 kbps
    Субтитры: Russian (Forced), English, English (SDH)

    Скриншоты

    MediaInfo

    GeneralUnique ID : 176807864534451489139549788180905898241 (0x8503F4C111C851F1A14633BEBE86B101)Complete name : Eye.in.the.Sky.2015.1080p.x264.mkvFormat : MatroskaFormat version : Version 2File size : 7.30 GiBDuration : 1h 42mnOverall bit rate : 10.2 MbpsEncoded date : UTC 2016-07-02 20:10:03Writing application : mkvmerge v9.2.0 ('Photograph') 64bitWriting library : libebml v1.3.3 + libmatroska v1.4.4
    VideoID : 1Format : AVCFormat/Info : Advanced Video CodecFormat profile : High@L4.1Format settings, CABAC : YesFormat settings, ReFrames : 5 framesCodec ID : V_MPEG4/ISO/AVCDuration : 1h 42mnBit rate : 9 151 KbpsWidth : 1 920 pixelsHeight : 808 pixelsDisplay aspect ratio : 2.40:1Frame rate mode : ConstantFrame rate : 23.976 fpsColor space : YUVChroma subsampling : 4:2:0Bit depth : 8 bitsScan type : ProgressiveBits/(Pixel*Frame) : 0.246Stream size : 6.56 GiB (90%)Writing library : x264 core 148 r2692 64f4e24Encoding settings : cabac=1 / ref=5 / deblock=1:0:0 / analyse=0x3:0x133 / me=umh / subme=7 / psy=1 / psy_rd=1.00:0.00 / mixed_ref=1 / me_range=16 / chroma_me=1 / trellis=1 / 8x8dct=1 / cqm=0 / deadzone=21,11 / fast_pskip=0 / chroma_qp_offset=-2 / threads=12 / lookahead_threads=2 / sliced_threads=0 / nr=0 / decimate=1 / interlaced=0 / bluray_compat=0 / constrained_intra=0 / bframes=3 / b_pyramid=2 / b_adapt=1 / b_bias=0 / direct=1 / weightb=1 / open_gop=0 / weightp=2 / keyint=250 / keyint_min=23 / scenecut=40 / intra_refresh=0 / rc_lookahead=40 / rc=2pass / mbtree=1 / bitrate=9151 / ratetol=1.0 / qcomp=0.60 / qpmin=0 / qpmax=69 / qpstep=4 / cplxblur=20.0 / qblur=0.5 / ip_ratio=1.40 / aq=1:1.00Language : EnglishDefault : YesForced : No
    Audio #1ID : 2Format : AC-3Format/Info : Audio Coding 3Mode extension : CM (complete main)Format settings, Endianness : BigCodec ID : A_AC3Duration : 1h 42mnBit rate mode : ConstantBit rate : 384 KbpsChannel(s) : 6 channelsChannel positions : Front: L C R, Side: L R, LFESampling rate : 48.0 KHzFrame rate : 31.250 fps (1536 spf)Compression mode : LossyStream size : 282 MiB (4%)Language : RussianDefault : YesForced : No
    Audio #2ID : 3Format : AC-3Format/Info : Audio Coding 3Mode extension : CM (complete main)Format settings, Endianness : BigCodec ID : A_AC3Duration : 1h 42mnBit rate mode : ConstantBit rate : 640 KbpsChannel(s) : 6 channelsChannel positions : Front: L C R, Side: L R, LFESampling rate : 48.0 KHzFrame rate : 31.250 fps (1536 spf)Compression mode : LossyStream size : 470 MiB (6%)Language : EnglishDefault : NoForced : No
    Text #1ID : 4Format : UTF-8Codec ID : S_TEXT/UTF8Codec ID/Info : UTF-8 Plain TextDuration : 1h 24mnBit rate : 8 bpsCount of elements : 109Stream size : 5.40 KiB (0%)Title : ForcedLanguage : RussianDefault : YesForced : Yes
    Text #2ID : 5Format : UTF-8Codec ID : S_TEXT/UTF8Codec ID/Info : UTF-8 Plain TextDuration : 1h 29mnBit rate : 52 bpsCount of elements : 1024Stream size : 34.7 KiB (0%)Language : EnglishDefault : NoForced : No
    Text #3ID : 6Format : UTF-8Codec ID : S_TEXT/UTF8Codec ID/Info : UTF-8 Plain TextDuration : 1h 31mnBit rate : 56 bpsCount of elements : 1143Stream size : 38.1 KiB (0%)Title : SDHLanguage : EnglishDefault : NoForced : No
    Menu00:00:00.000 : en:00:00:00.00000:05:23.823 : en:00:05:23.82300:10:50.149 : en:00:10:50.14900:15:12.787 : en:00:15:12.78700:19:07.355 : en:00:19:07.35500:25:23.230 : en:00:25:23.23000:30:22.320 : en:00:30:22.32000:36:55.630 : en:00:36:55.63000:41:49.590 : en:00:41:49.59000:46:48.556 : en:00:46:48.55600:50:25.147 : en:00:50:25.14700:55:24.279 : en:00:55:24.27900:59:34.905 : en:00:59:34.90501:03:25.010 : en:01:03:25.01001:10:24.262 : en:01:10:24.26201:16:51.148 : en:01:16:51.14801:21:32.304 : en:01:21:32.30401:26:15.003 : en:01:26:15.00301:30:03.398 : en:01:30:03.39801:33:42.033 : en:01:33:42.033
    Скачать семпл | Похожие раздачи
    Скачать .torrent

    Скачать торрент-файл бесплатно и на максимальной скорости!

    Как скачивать? · Что такое торрент? · Рейтинг и ограничения

    !ВНИМАНИЕ!
    Сайт не распространяет и не хранит электронные версии произведений, а занимается лишь лишь предоставлением доступа к создаваемому пользователями каталогу ссылок на торрент-файлы, которые содержат только списки хеш-сумм, убедительная просьба с жалобами обращаться напрямую к пользователю. Файлы для обмена на трекере предоставлены пользователями сайта, и администрация не несёт ответственности за их содержание. Просьба не заливать файлы, защищенные авторскими правами, а также файлы нелегального содержания!


    _________________
    [Профиль] [ЛС]
    Показать сообщения:    
    Ответить на тему

    Текущее время: Сегодня, в 12:26

    Часовой пояс: GMT + 2



    Вы не можете начинать темы
    Вы не можете отвечать на сообщения
    Вы не можете редактировать свои сообщения
    Вы не можете удалять свои сообщения
    Вы не можете голосовать в опросах
    Вы не можете прикреплять файлы к сообщениям
    Вы не можете скачивать файлы