BitTorrentTracker PerecTracker.org
BitTorrentTracker PerecTracker.org
    
Регистрация  ·  Вход
 
 · 
Забыли пароль?

  • Перерыв на бездумье / Time out of mind (Орен Моверман / Oren Moverman) [2014, США, Драма, HDRip] MVO (iTunes)

    Ответить на тему
     
    Автор Сообщение

    Light

    Создавать темы 03-Июл-2016 22:32

           

    [Цитировать]

    Перерыв на бездумье / Time out of mind
    Страна: США
    Жанр: Драма
    Год выпуска: 2014
    Продолжительность: 02:01:21
    Перевод: Профессиональный (многоголосый закадровый) iTunes
    Cубтитры: нет
    Режиссер: Орен Моверман / Oren Moverman
    В ролях: Ричард Гир, Джена Мэлоун, Стив Бушеми, Кира Седжвик, Майкл Кеннет Уильямс, Даниэль Брукс, Брайан Д’Арси Джеймс, Колман Доминго, Эбигейл Сэвадж, Майкл Бушеми
    Описание: Фильм режиссера Орена Мовермана «Перерыв на бездумье» – это острая реалистичная драма, рассказывающая о проблемах современного общества. В главной роли Ричард Гир, 65-летний актер, сменивший амплуа и сыгравший нью-йоркского бездомного. Джордж находит убежище в больнице Белльвью, манхэттенском приёмном центре для бездомных, где его дружба с таким же обитателем помогает ему в попытках восстановить свои отношения с раздельно проживающей дочерью. История человека, потерявшего всё и совершающего длинный путь к себе, к своим близким в поисках смысла жизни.
    Сэмпл: http://sendfile.su/1247231
    Качество видео: HDRip (исходник неизвестен)
    Формат видео: AVI
    Видео: 720x304 (2.37:1), 23.976 fps, XviD build 50 ~1330 kbps avg, 0.25 bit/pixel
    Аудио: 48 kHz, AC3 Dolby Digital, 3/2 (L,C,R,l,r) + LFE ch, ~384 kbps

    MediaInfo

    General
    Complete name : E:\Zona Downloads\Pereryv.na.bezdymje.2O14.P.HDRip.1.46GB.avi
    Format : AVI
    Format/Info : Audio Video Interleave
    File size : 1.46 GiB
    Duration : 2h 1mn
    Overall bit rate : 1 724 Kbps
    Writing application : VirtualDubMod 1.5.10.2 (build 2540/release)
    Writing library : VirtualDubMod build 2540/release
    Video
    ID : 0
    Format : MPEG-4 Visual
    Format profile : Advanced Simple@L5
    Format settings, BVOP : 2
    Format settings, QPel : No
    Format settings, GMC : No warppoints
    Format settings, Matrix : Default (MPEG)
    Codec ID : XVID
    Codec ID/Hint : XviD
    Duration : 2h 1mn
    Bit rate : 1 331 Kbps
    Width : 720 pixels
    Height : 304 pixels
    Display aspect ratio : 2.35:1
    Frame rate : 23.976 fps
    Color space : YUV
    Chroma subsampling : 4:2:0
    Bit depth : 8 bits
    Scan type : Progressive
    Compression mode : Lossy
    Bits/(Pixel*Frame) : 0.254
    Stream size : 1.13 GiB (77%)
    Writing library : XviD 1.2.1 (UTC 2008-12-04)
    Audio
    ID : 1
    Format : AC-3
    Format/Info : Audio Coding 3
    Mode extension : CM (complete main)
    Format settings, Endianness : Big
    Codec ID : 2000
    Duration : 2h 1mn
    Bit rate mode : Constant
    Bit rate : 384 Kbps
    Channel(s) : 6 channels
    Channel positions : Front: L C R, Side: L R, LFE
    Sampling rate : 48.0 KHz
    Bit depth : 16 bits
    Compression mode : Lossy
    Stream size : 333 MiB (22%)
    Alignment : Split accross interleaves
    Interleave, duration : 42 ms (1.00 video frame)
    Interleave, preload duration : 500 ms

    Скриншот c названием фильма

    Скриншоты

    Скачать .torrent

    Скачать торрент-файл бесплатно и на максимальной скорости!

    Как скачивать? · Что такое торрент? · Рейтинг и ограничения

    !ВНИМАНИЕ!
    Сайт не распространяет и не хранит электронные версии произведений, а занимается лишь лишь предоставлением доступа к создаваемому пользователями каталогу ссылок на торрент-файлы, которые содержат только списки хеш-сумм, убедительная просьба с жалобами обращаться напрямую к пользователю. Файлы для обмена на трекере предоставлены пользователями сайта, и администрация не несёт ответственности за их содержание. Просьба не заливать файлы, защищенные авторскими правами, а также файлы нелегального содержания!


    _________________
    [Профиль] [ЛС]
    Показать сообщения:    
    Ответить на тему

    Текущее время: Сегодня, в 00:22

    Часовой пояс: GMT + 2



    Вы не можете начинать темы
    Вы не можете отвечать на сообщения
    Вы не можете редактировать свои сообщения
    Вы не можете удалять свои сообщения
    Вы не можете голосовать в опросах
    Вы не можете прикреплять файлы к сообщениям
    Вы не можете скачивать файлы