BitTorrentTracker PerecTracker.org
BitTorrentTracker PerecTracker.org
    
Регистрация  ·  Вход
 
 · 
Забыли пароль?

  • В нашем городе (Лев Дурасов) [1959, детский, музыкальный, VHSRip]

    Ответить на тему
     
    Автор Сообщение

    Flirldrerve

    Создавать темы 03-Июл-2016 01:40

           

    [Цитировать]

    В нашем городе
    Жанр: детский, музыкальный
    Год выпуска: 1959
    Продолжительность: 00:43:10
    Режиссёр: Лев Дурасов
    В ролях: Лариса Гордейчик, Александр Лебедев, Владимир Кулик, Зоя Фёдорова, Дмитрий Кара-Дмитриев, Сергей Мартинсон, Эммануил Геллер, Георгий Милляр, Пётр Савин
    Описание: Когда во дворе зазвучал детский оркестр из бутылок, сковородок, бочек и стиральных досок, известный в прошлом музыкант Потехин отнесся к шуму весьма серьезно. У ребят появились настоящие музыкальные инструменты и красный уголок, который юные музыканты сами привели в полный порядок. В день его открытия детский самодеятельный оркестр даёт своё первое выступление. Его приходят послушать почти все жильцы дома.
    Доп. информация:
    Кино-театр

    Сэмпл: здесь
    Качество видео: VHSRip
    Формат видео: AVI
    Видео: XviD, 768x576 (4:3), 25 fps, 1509 kbps
    Аудио: MPEG Layer 3, 44.1 kHz, 192 kbps, 2 ch

    MediaInfo

    Полное имя : (1959) В нашем городе.avi
    Формат : AVI
    Формат/Информация : Audio Video Interleave
    Размер файла : 528 Мбайт
    Продолжительность : 43 м.
    Общий поток : 1711 Кбит/сек
    Библиотека кодирования : VirtualDub build 35491/release
    Видео
    Идентификатор : 0
    Формат : MPEG-4 Visual
    Профиль формата : Advanced Simple@L5
    Параметр BVOP формата : Нет
    Параметр QPel формата : Нет
    Параметр GMC формата : Без точки перехода
    Параметр матрицы формата : Default (MPEG)
    Идентификатор кодека : XVID
    Идентификатор кодека/Подсказка : XviD
    Продолжительность : 43 м.
    Битрейт : 1509 Кбит/сек
    Ширина : 768 пикселей
    Высота : 576 пикселей
    Соотношение сторон : 4:3
    Частота кадров : 25,000 кадров/сек
    Цветовое пространство : YUV
    Субдискретизация насыщенности : 4:2:0
    Битовая глубина : 8 бит
    Тип развёртки : Прогрессивная
    Метод сжатия : С потерями
    Бит/(Пиксели*Кадры) : 0.136
    Размер потока : 466 Мбайт (88%)
    Библиотека кодирования : XviD 62
    Аудио
    Идентификатор : 1
    Формат : MPEG Audio
    Версия формата : Version 1
    Профиль формата : Layer 3
    Идентификатор кодека : 55
    Идентификатор кодека/Подсказка : MP3
    Продолжительность : 43 м.
    Вид битрейта : Постоянный
    Битрейт : 192 Кбит/сек
    Каналы : 2 канала
    Частота : 44,1 КГц
    Метод сжатия : С потерями
    Задержка видео : 16 мс.
    Размер потока : 59,3 Мбайт (11%)
    Выравнивание : Разделение по промежуткам
    Продолжительность промежутка : 40 мс. (1,00 видеокадр)
    Время предзагрузки промежутка : 500 мс.
    Библиотека кодирования : LAME

    Скриншот c названием фильма

    Скриншоты

    Скачать .torrent

    Скачать торрент-файл бесплатно и на максимальной скорости!

    Как скачивать? · Что такое торрент? · Рейтинг и ограничения

    !ВНИМАНИЕ!
    Сайт не распространяет и не хранит электронные версии произведений, а занимается лишь лишь предоставлением доступа к создаваемому пользователями каталогу ссылок на торрент-файлы, которые содержат только списки хеш-сумм, убедительная просьба с жалобами обращаться напрямую к пользователю. Файлы для обмена на трекере предоставлены пользователями сайта, и администрация не несёт ответственности за их содержание. Просьба не заливать файлы, защищенные авторскими правами, а также файлы нелегального содержания!


    _________________
    [Профиль] [ЛС]

    -746

    Создавать темы 03-Июл-2016 18:31 (спустя 16 часов)

           

    Топік був перенесений з форуму Наше кино у форум Кино СССР

    rechyn

    _________________
    Как бы ты высоко не летал, не забывай, с кем ты ползал..
     
    Показать сообщения:    
    Ответить на тему

    Текущее время: Сегодня, в 14:15

    Часовой пояс: GMT + 2



    Вы не можете начинать темы
    Вы не можете отвечать на сообщения
    Вы не можете редактировать свои сообщения
    Вы не можете удалять свои сообщения
    Вы не можете голосовать в опросах
    Вы не можете прикреплять файлы к сообщениям
    Вы не можете скачивать файлы