BitTorrentTracker PerecTracker.org
BitTorrentTracker PerecTracker.org
    
Регистрация  ·  Вход
 
 · 
Забыли пароль?

  • Тачки. Дилогия (Джон Лассетер, Джо Рэнфт, Брэд Льюис) [2006 и 2011 гг., США, мультфильм, комедия, приключения, семейный, BDRip HD (720p), SD (480p)] DUB, Original + SUB (rus, eng и др.)

    Ответить на тему
     
    Автор Сообщение

    Flirldrerve

    Создавать темы 03-Июл-2016 01:40

           

    [Цитировать]

    Тачки. Дилогия
    -Тачки / Cars
    "The All-New 2006"
    7.605 / 10
    Год выпуска: 2006
    Страна: США
    Жанр: мультфильм, комедия, приключения, семейный, спорт
    Продолжительность: 112 мин.
    Перевод: Профессиональный дублированный перевод
    Оригинальная аудиодорожка: Есть
    Cубтитры: Русские форсированные, русские полные, английские полные, испанские полные, финские полные, шведские полные, датские полные и французские полные
    Режиссёр: Джон Лассетер, Джо Рэнфт
    Сценарий: Джон Лассетер, Джо Рэнфт, Йорген Клюбен
    Продюсер: Дарла К. Андерсон, Томас Портер
    Оператор: Джереми Ласки
    Композитор: Рэнди Ньюман
    Художник: Уильям Коун, Боб Поли
    Монтаж: Кен Шретцман
    В ролях: Оуэн Уилсон, Пол Ньюман, Бонни Хант, Ларри Кейбл Гай, Чич Марин, Тони Шэлуб, Гуидо Куарони, Дженифер Льюис, Пол Дули, Майкл Уоллис
    Роли дублировали: Дмитрий Харатьян, Армен Джигарханян, Алика Смехова, Сергей Кузнецов, Андрей Машков
    Бюджет: $120 000 000
    Сборы в США: $244 082 982
    Сборы в мире: + $217 898 622 = $461 981 604
    Сборы в России: $4 020 000
    Мировая премьера: 14 марта 2006
    Премьера (РФ): 15 июня 2006, Каскад
    Релиз на Blu-Ray: 27 августа 2009, Уолт Дисней Компани СНГ
    Релиз на DVD: 29 января 2009, Уолт Дисней Компани СНГ-Описание: Неукротимый в своем желании всегда и во всем побеждать гоночный автомобиль "Молния" Маккуин вдруг обнаруживает, что сбился с пути и застрял в маленьком захолустном городке Радиатор-Спрингс, что находится где-то на трассе 66 в Калифорнии.
    Участвуя в гонках на Кубок Поршня, где ему противостояли два очень опытных соперника, Маккуин совершенно не ожидал, что отныне ему придется общаться с персонажами совсем иного рода. Это, например, Салли - шикарный Порше 2002-го года выпуска, Док Хадсон - легковушка модели "Хадсон Хорнет", 1951-го года выпуска или Метр - ржавый грузовичок-эвакуатор. И все они помогают Маккуину понять, что в мире существуют некоторые более важные вещи, чем слава, призы и спонсоры...-Качество исходника: Blu-Ray 1080p (HDClub)
    Качество: BDRip
    Тип: 480p 720p
    Контейнер: m4v
    Видео: 640x356 анаморф 852x356 at 23.976 fps, MPEG-4 AVC, ~1850 kbps avg
    Видео: 1280x528 at 23.976 fps, MPEG-4 AVC, ~3900 kbps avg
    Аудио#1: Russian: 48 kHz, ААС, 2/0 (L,R), ~160.00 kbps avg |Дубляж|
    Аудио#2: English: 48 kHz, ААС, 2/0 (L,R), ~160.00 kbps avg
    Аудио#3: Russian: 48 kHz, AC3, 3/2 (L,C,R,l,r) + LFE ch, ~640.00 kbps avg |Дубляж|
    Аудио#4: Russian: 48 kHz, AC3, 3/2 (L,C,R,l,r) + LFE ch, ~640.00 kbps avg
    Субтитры №1: Russian: |Форсированные|
    Субтитры №2: Russian: |Полные|
    Субтитры №3: English: |Полные|
    Субтитры №4: Spanish: |Полные|
    Субтитры №5: Finnish: |Полные|
    Субтитры №6: Swedish: |Полные|
    Субтитры №7: Danish: |Полные|
    Субтитры №8: French: |Полные|-

    Знаете ли Вы, что...

    • Изначально, проект получил название «Трасса 66» (Route 66). Принимая во внимание тот факт, что это название ранее уже использовалось киноделами (в 1960 году свет увидел одноименный сериал, продлившийся 4 сезона), фильм получил свое текущее лаконичное название.
    • Музыкальный ряд в начале самого первого рекламного ролика (Тизер-трейлера) к мультфильму является ничем иным как заглавной темой к другому творению студии «Pixar» — «Приключения Флика».
    • Другая композиция из того же ролика принадлежит панк-рок-коллективу Green Day. Название песни — «Westbound Sign» из альбома «Insomniac» 1995 года.
    • Во время работы над мультфильмом мультипликаторами было нарисовано 43 тысячи эскизных рисунков (скетчей), посвященных различным вариантам дизайна машин.
    • Оригинальным номером персонажа по имени «Lightning McQueen», озвученного Оуэном Уилсоном, была цифра 57, символизирующая год рождения режиссера Джона Лассетера. Позднее было принято решение поменять номер на «95», год выпуска первого мультфильма студии «Pixar» — «История Игрушек». Имя этого персонажа — дань памяти одному из лучших аниматоров студии Гленну МакКуину, скончавшемуся в 2002 году.
    • Шины «Lightning McQueen» произведены вымышленным концерном «Lightyear» по аналогии с всемирно известным брэндом «Goodyear».
    • Миа и Тиа смоделированы на основе первого поколения Mazda MX-5 Miata.
    • Вымышленный город Радиатор Спрингс был создан на основе реально существующих мест на трассе 66. В 2001 году творческая группа студии «Pixar», включая Джона Лассетера и Джо Рэнфта, прокатилась по некоторым участкам трассы 66 в Канзасе, Оклахоме, Техасе, Новой Мексики, Аризоне и Калифорнии. В путешествии их сопровождал Майкл Уоллис, историк трассы 66. Он озвучил Шерифа в мультфильме.
    • Вместо того, чтобы сделать фары глазами персонажей, как это принято в большинстве мультфильмах о машинах, создатели решили разместить глаза героев на лобовом стекле, что позволило показать персонажей более эмоциональными. Данная идея была позаимствована из диснеевского мультфильма «Susie the Little Blue Coupe» (1952).
    • Сардж — 1941 Willys MB.
    • Док Хадсон — 1951 Hudson Hornet.
    • Шериф — 1949 Mercury Police Cruiser.
    • Фло не был смоделирован на основе какой-то определенной модели, но сочетает в себе элементы 1951 Buick LeSabre, 1951 Buick XP-300 и 1957 Chrysler Dart.
    • Лиззи — 1913 Ford Model T.
    • На одном из стикеров на бампере Филлмора написано «Спасём двухмерную анимацию».
    • Автомобильный номер Мэтра — «A113». Номер поезда, который чуть не сбил Молнию МакКвина, — «A113». Это — ссылки на «Калифорнийский институт искусства», где учились многие аниматоры студии «Pixar».
    • Профессия «Porsche» — адвокат. Это — ссылка на «Portia», прозвище адвокатов-женщин, названных по персонажу в «Венецианском купце» Шекспира.
    • Филлмор, которого озвучил Джордж Карлин, — это имитация Аля Стила, метеоролога-хиппи, одного из образов, который использовал Карлин в своих скетчах в 1960-1970-х гг. Автомобильный номер Филлмора — «51237». Карлин родился 12 мая 1937 года.
    • Если внимательно присмотреться к гоночному автомобилю под номером 84, белой машине, то можно заметить логотип компании «Apple». В 1984 году компания «Apple» выпустила первый компьютер «Macintosh». До недавнего времени Стив Джобс, президент «Apple», являлся владельцем студии «Pixar».
    • Несмотря на огромное количество компьютеров, работавших в четыре раза быстрее, чем компьютеры, использовавшиеся для создания «Суперсемейки» (2004), на обработку каждого кадра мультфильма уходило в среднем 17 часов.
    • Кинг, Стрип Уэзерс, — 1970 Plymouth Roadrunner Superbird.
    • Рамон — 1959 Chevrolet Impala.
    • Луиджи — 1959 Fiat 500.
    • Гвидо — ISO Isetta.
    • Мэтр — 1955-1957 Chevrolet или грузовик GMC.
    • Салли — 2002 Porsche 911 Carrera (Type 996).
    • Изначально сюжет мультфильма должен был крутиться вокруг электромобиля, живущего в мире бензиновых машин.
    • Когда Мак везет МакКвина в Лос-Анджелес на одном из высоковольтных кабелей можно заметить птичек из короткометражки студии «Pixar» — «О птичках» (2000).
    • На покрышках для гоночных автомобилей мелким шрифтом написано: «Гамма сектор 4», что является ссылкой на «Историю игрушек 2».
    • Компания «Dinoco», спонсор «Piston Cup», также владела заправочной станцией, где останавливалась мама Энди в «Истории игрушек» (1995).
    • Ближе к концовке мультфильма можно заметить грузовик с логотипом «Pizza Planet».
    • В немецком дубляже одну из ролей озвучивал Михаэль Шумахер; в итальянском — Джанкарло Физикелла; в испанском — Фернандо Алонсо.
    • Джереми Кларксон подарил свой голос для британской версии фильма.
    • Дизайн «Cozy Cone Motel» основан на двух реально существовавших отелях на трассе 66.
    • Персонаж «Филлмор» (Fillmore) изначально должен был быть назван «Уолдмайром» (Waldmire) по имени Боба Уолдмайра (Bob Waldmire), известного хиппи, составившего подробнейшие карты трассы 66. Однако сейчас Боб вегетарианец, и он отказался подарить своё имя персонажу, который точно станет игрушкой в «Happy Meal» в Макдоналдсе.
    • При выходе фильма в Италии, компания-дистрибьютор прибегла к небольшому трюку. Так как практически все иностранные картины дублируются при выходе в Италии, Луиджи получил небольшой моденийский акцент (Модена — родной город «Ferrari»); Гвидо был дублирован с сильным моденийским акцентом. «Ferrari» в конце мультфильма, как и в оригинале, была озвучена Михаэлем Шумахером, но, конечно, на итальянском языке с сильным немецким акцентом.
    • На итальянский шина переводится как «gomma». В Италии на самом деле существует множество магазинов под названием «Casa della gomma» (Дом шины).
    • Название трофея гонок Piston Cup явно пародирует Winston Cup, именно такое название с 1971 по 2003 носил трофей главной серии гонок NASCAR.
    • Комментатор Дарелл Калтрип — это явный намёк на Дарелла Уолтрипа 3-х кратного чемпиона NASCAR ныне работающего комментатором на Fox.

    -
    Тачки 2 / Cars 2
    6.881 / 10
    Год выпуска: 2011
    Страна: США
    Жанр: мультфильм, комедия, приключения, семейный
    Продолжительность: 112 мин.
    Перевод: Профессиональный дублированный перевод
    Оригинальная аудиодорожка: Есть
    Cубтитры: Русские полные, английские полные, французские полные и португальские полные
    Режиссёр: Джон Лассетер, Брэд Льюис
    Сценарий: Бен Квин, Джон Лассетер, Брэд Льюис
    Продюсер: Денис Рим, Марк Нилсен
    Композитор: Майкл Джаккино
    Художник: Харли Джессуп, Берт Берри, Джей Шустер
    Монтаж: Стефен Шаффер
    В ролях: Оуэн Уилсон, Ларри-кабельщик, Майкл Кейн, Эмили Мортимер, Эдди Иззард, Джон Туртурро, Брент Мусбургер, Джо Мантенья, Томас Кречман, Питер Джекобсон
    Роли дублировали: Дмитрий Харатьян, Сергей Кузнецов, Леонид Каневский, Жанна Фриске, Леонид Ярмольник
    Бюджет: $200 000 000
    Сборы в США: $191 452 396
    Сборы в мире: + $368 400 000 = $559 852 396
    Сборы в России: $19 920 129
    Мировая премьера: 18 июня 2011
    Премьера (РФ): 23 июня 2011, WDSSPR, 3D, imax
    Релиз на Blu-Ray: 29 ноября 2011, Уолт Дисней Компани СНГ
    Релиз на DVD: 1 ноября 2011, Уолт Дисней Компани СНГ-Описание: Молния МакКуин и его друг Мэтр отправляются в международное путешествие - когда МакКуин получает шанс участвовать в соревнованиях для самых быстрых машин в мире, Мировом Гран-При. Этапы этих престижных гонок заведут друзей в Токио, на набережные Парижа, на побережье Италии, и на улицы туманного Лондона.-Качество исходника: Blu-Ray 1080p (HDClub)
    Качество: BDRip
    Тип: 480p 720p
    Контейнер: m4v
    Видео: 640x356 анаморф 852x356 at 23.976 fps, MPEG-4 AVC, ~1700 kbps avg
    Видео: 1280x532 at 23.976 fps, MPEG-4 AVC, ~4000 kbps avg
    b]Аудио#1:
    Russian: 48 kHz, ААС, 2/0 (L,R), ~128.00 / 192.00 kbps avg |Дубляж, Blu-Ray CEE|
    Аудио#2: English: 48 kHz, ААС, 2/0 (L,R), ~128.00 / 192.00 kbps avg
    Аудио#3: Russian: 48 kHz, AC3, 3/2 (L,C,R,l,r) + LFE ch, ~640.00 kbps avg |Дубляж, Blu-Ray CEE|
    Аудио#4: Russian: 48 kHz, AC3, 3/2 (L,C,R,l,r) + LFE ch, ~640.00 kbps avg
    Субтитры №1: Russian: |Полные|
    Субтитры №2: English: |Полные|
    Субтитры №3: French: |Полные|
    Субтитры №4: Portuguese: |Полные|-

    Знаете ли Вы, что...

    • На гонке в Радиатор-Спрингс можно заметить среди болельщиков автомобиль Планета пицца (отсылка к «Истории Игрушек»). Данный автомобиль присутствует во всех фильмах производства Pixar.
    • Джон Лассетер задумал историю для сиквела ещё в 2006 году, когда он был в Европе, продвигая первый мультфильм.
    • Когда Мэтр, Фин МакМиссл и Холли Делюкс были во Франции, можно было заметить ресторан «Гюсто» (отсылка к другому мультфильму Pixar — «Рататуй»). Только сам Гюсто был в авто-прототипе (он очень похож на Мэтра).
    • Среди подручных Профессора Ц можно заметить группу автомобилей ЗАЗ 968, а точнее его экспортный вариант Jalta 968.
    • Все марки машин соответствуют странам, в которых они производятся. Так, например, в Италии очень много машин марок «Ferrari» и «Fiat», в Японии «Mazda» и «Subaru», а в Великобритании «Land Rover» и «Bentley».
    • Из уважения к Полу Ньюману, который умер в 2008 году, персонаж Дока Хадсона не включен во второй фильм. Чтобы Док Хадсон был упомянут в фильме, в его честь решили назвать кубок Большого Поршня. Также сообщается, что Док умер.

    -
    Тачки. Дилогия
    Технические данные коллекции.--Тачки / Cars-

    iTunes Meta Tags for country us

    Name: Cars
    Artist: John Lasseter
    Genre: Kids & Family
    Release Date: 2006-03-14T08:00:00Z
    Description: Неукротимый в своем желании всегда и во всем побеждать гоночный автомобиль "Молния" Маккуин вдруг обнаруживает, что сбился с пути и застрял в маленьком захолустном городке Радиатор-Спрингс, что находится где-то на трассе 66 в Калифорнии.
    Long Description: Неукротимый в своем желании всегда и во всем побеждать гоночный автомобиль "Молния" Маккуин вдруг обнаруживает, что сбился с пути и застрял в маленьком захолустном городке Радиатор-Спрингс, что находится где-то на трассе 66 в Калифорнии.
    Участвуя в гонках на Кубок Поршня, где ему противостояли два очень опытных соперника, Маккуин совершенно не ожидал, что отныне ему придется общаться с персонажами совсем иного рода. Это, например, Салли - шикарный Порше 2002-го года выпуска, Док Хадсон - легковушка модели "Хадсон Хорнет", 1951-го года выпуска или Метр - ржавый грузовичок-эвакуатор. И все они помогают Маккуину понять, что в мире существуют некоторые более важные вещи, чем слава, призы и спонсоры...
    Rating: G
    Studio: Pixar
    Cast: Оуэн Уилсон, Пол Ньюман, Бонни Хант, Ларри Кейбл Гай, Чич Марин, Тони Шэлуб, Гуидо Куарони, Дженифер Льюис, Пол Дули, Майкл Уоллис
    Director: Джон Лассетер, Джо Рэнфт
    Producers: Дарла К. Андерсон, Томас Портер
    Screenwriters: Джон Лассетер, Джо Рэнфт, Йорген Клюбен
    Copyright: © 2006 Disney/Pixar
    contentID: 188764984
    XID: Apple:vendor_id:2006-61249
    Sort Name: Cars 1

    iTunes Meta Tags for country ru

    Name: Тачки
    Artist: Pixar
    Genre: Kids & Family
    Release Date: 2006-03-14T08:00:00Z
    Description: Неукротимый в своем желании всегда и во всем побеждать гоночный автомобиль "Молния" Маккуин вдруг обнаруживает, что сбился с пути и застрял в маленьком захолустном городке Радиатор-Спрингс, что находится где-то на трассе 66 в Калифорнии.
    Long Description: Неукротимый в своем желании всегда и во всем побеждать гоночный автомобиль "Молния" Маккуин вдруг обнаруживает, что сбился с пути и застрял в маленьком захолустном городке Радиатор-Спрингс, что находится где-то на трассе 66 в Калифорнии.
    Участвуя в гонках на Кубок Поршня, где ему противостояли два очень опытных соперника, Маккуин совершенно не ожидал, что отныне ему придется общаться с персонажами совсем иного рода. Это, например, Салли - шикарный Порше 2002-го года выпуска, Док Хадсон - легковушка модели "Хадсон Хорнет", 1951-го года выпуска или Метр - ржавый грузовичок-эвакуатор. И все они помогают Маккуину понять, что в мире существуют некоторые более важные вещи, чем слава, призы и спонсоры...
    Rating: 0+
    Rating Annotation: Rated 0+ Для любой зрительской аудитории
    Studio: Pixar
    Cast: Оуэн Уилсон, Пол Ньюман, Бонни Хант, Ларри Кейбл Гай, Чич Марин, Тони Шэлуб, Гуидо Куарони, Дженифер Льюис, Пол Дули, Майкл Уоллис
    Director: Джон Лассетер, Джо Рэнфт
    Producers: Дарла К. Андерсон, Томас Портер
    Screenwriters: Джон Лассетер, Джо Рэнфт, Йорген Клюбен
    Copyright: © 2006 Disney/Pixar
    contentID: 542918692
    XID: Apple:vendor_id:2006-61249
    Sort Name: Тачки 1

    MediaInfo 480p Release

    Общее
    Полное имя : Cars.m4v
    Формат : MPEG-4
    Идентификатор кодека : M4V  (M4V /M4A /mp42/isom)
    Размер файла : 1,78 Гбайт
    Продолжительность : 1 ч. 56 м.
    Режим общего битрейта : Переменный
    Общий поток : 2187 Кбит/сек
    Название фильма : Cars
    Исполнитель : John Lasseter
    Режиссёр : Джон Лассетер / Джо Рэнфт
    Исполнитель : Оуэн Уилсон / Пол Ньюман / Бонни Хант / Ларри Кейбл Гай / Чич Марин / Тони Шэлуб / Гуидо Куарони / Дженифер Льюис / Пол Дули / Майкл Уоллис
    Сценарист : Джон Лассетер / Джо Рэнфт / Йорген Клюбен
    Продюсер : Дарла К. Андерсон / Томас Портер
    Студия-производитель : Pixar
    Жанр : Kids & Family
    Тип содержимого : Short Film
    Описание : Неукротимый в своем желании всегда и во всем побеждать гоночный автомобиль "Молния" Маккуин вдруг обнаруживает, что сбился с пути и застрял в маленьком захолустном городке Радиатор-Спрингс, что находится где-то на трассе 66 в Калифорнии.
    Дата записи : UTC 2006-03-14 08:00:00
    Дата кодирования : UTC 2016-07-02 07:53:17
    Дата пометки : UTC 2016-07-02 13:22:09
    Авторское право : © 2006 Disney/Pixar
    Обложка : Yes
    Оценка : None
    Title/Sort : Cars 1
    LongDescription : Неукротимый в своем желании всегда и во всем побеждать гоночный автомобиль "Молния" Маккуин вдруг обнаруживает, что сбился с пути и застрял в маленьком захолустном городке Радиатор-Спрингс, что находится где-то на трассе 66 в Калифорнии. / Участвуя в гонках на Кубок Поршня, где ему противостояли два очень опытных соперника, Маккуин совершенно не ожидал, что отныне ему придется общаться с персонажами совсем иного рода. Это, например, Салли - шикарный Порше 2002-го года выпуска, Док Хадсон - легковушка модели "Хадсон Хорнет", 1951-го года выпуска или Метр - ржавый грузовичок-эвакуатор. И все они помогают Маккуину понять, что в мире существуют некоторые более важные вещи, чем слава, призы и спонсоры...
    AppleStoreCatalogID : 188764984
    Vendor : Apple:vendor_id:2006-61249
    ContentRating : mpaa|G|100|
    Видео #1
    Идентификатор : 1
    Формат : AVC
    Формат/Информация : Advanced Video Codec
    Профиль формата : Baseline@L3
    Параметр CABAC формата : Нет
    Параметр ReFrames формата : 2 кадра
    Идентификатор кодека : avc1
    Идентификатор кодека/Информация : Advanced Video Coding
    Продолжительность : 1 ч. 56 м.
    Битрейт : 1850 Кбит/сек
    Ширина : 640 пикселей
    Высота : 356 пикселей
    Соотношение сторон : 2,40:1
    Режим частоты кадров : Переменный
    Частота кадров : 23,976 кадра/сек
    Минимальная частота кадров : 23,810 кадра/сек
    Максимальная частота кадров : 24,390 кадра/сек
    Цветовое пространство : YUV
    Субдискретизация насыщенности : 4:2:0
    Битовая глубина : 8 бит
    Тип развёртки : Прогрессивная
    Бит/(Пиксели*Кадры) : 0.339
    Размер потока : 1,50 Гбайт (84%)
    Заголовок : Main Program
    Библиотека кодирования : x264 core 112
    Настройки программы : cabac=0 / ref=2 / deblock=1:0:0 / analyse=0x1:0x111 / me=umh / subme=6 / psy=1 / psy_rd=1.00:0.00 / mixed_ref=1 / me_range=16 / chroma_me=1 / trellis=0 / 8x8dct=0 / cqm=0 / deadzone=21,11 / fast_pskip=1 / chroma_qp_offset=-2 / threads=6 / sliced_threads=0 / nr=0 / decimate=1 / interlaced=0 / constrained_intra=0 / bframes=0 / weightp=0 / keyint=240 / keyint_min=23 / scenecut=40 / intra_refresh=0 / rc_lookahead=40 / rc=2pass / mbtree=1 / bitrate=1850 / ratetol=1.0 / qcomp=0.60 / qpmin=3 / qpmax=51 / qpstep=4 / cplxblur=20.0 / qblur=0.5 / vbv_maxrate=5000 / vbv_bufsize=5000 / ip_ratio=1.40 / aq=1:1.00 / nal_hrd=none
    Язык : English
    Дата кодирования : UTC 2016-07-02 07:53:18
    Дата пометки : UTC 2016-07-02 07:55:23
    Цветовой диапазон : Limited
    Основные цвета : BT.709
    Характеристики трансфера : BT.709
    Коэффициенты матрицы : BT.709
    Menus : 12,13
    Видео #2
    Идентификатор : 13
    Формат : JPEG
    Идентификатор кодека : jpeg
    Продолжительность : 1 ч. 56 м.
    Вид битрейта : Переменный
    Битрейт : 1969 бит/сек
    Ширина : 640 пикселей
    Высота : 267 пикселей
    Соотношение сторон : 2,40:1
    Режим частоты кадров : Переменный
    Частота кадров : 0,005 кадр/сек
    Минимальная частота кадров : 0,001 кадр/сек
    Максимальная частота кадров : 0,022 кадр/сек
    Цветовое пространство : YUV
    Субдискретизация насыщенности : 4:2:0
    Битовая глубина : 8 бит
    Метод сжатия : С потерями
    Бит/(Пиксели*Кадры) : 2.305
    Размер потока : 1,50 Мбайт (0%)
    Заголовок : Chapter Images
    Язык : English
    Default : Нет
    Дата кодирования : UTC 2016-07-02 07:55:34
    Дата пометки : UTC 2016-07-02 07:55:34
    Menu For : 1
    Аудио #1
    Идентификатор : 2
    Формат : AAC
    Формат/Информация : Advanced Audio Codec
    Профиль формата : LC
    Идентификатор кодека : 40
    Продолжительность : 1 ч. 56 м.
    Вид битрейта : Переменный
    Битрейт : 168 Кбит/сек
    Максимальный битрейт : 259 Кбит/сек
    Каналы : 2 канала
    Расположение каналов : Front: L R
    Частота : 48,0 КГц
    Частота кадров : 46,875 кадров/сек (1024 spf)
    Метод сжатия : С потерями
    Размер потока : 140 Мбайт (8%)
    Заголовок : Russian DUB Stereo
    Язык : Russian
    Default : Да
    Alternate group : 1
    Дата кодирования : UTC 2016-07-02 07:53:18
    Дата пометки : UTC 2016-07-02 07:55:23
    Subtitles : 4,5
    Menus : 12
    Аудио #2
    Идентификатор : 3
    Формат : AAC
    Формат/Информация : Advanced Audio Codec
    Профиль формата : LC
    Идентификатор кодека : 40
    Продолжительность : 1 ч. 56 м.
    Вид битрейта : Переменный
    Битрейт : 168 Кбит/сек
    Максимальный битрейт : 260 Кбит/сек
    Каналы : 2 канала
    Расположение каналов : Front: L R
    Частота : 48,0 КГц
    Частота кадров : 46,875 кадров/сек (1024 spf)
    Метод сжатия : С потерями
    Размер потока : 141 Мбайт (8%)
    Заголовок : English Stereo
    Язык : English
    Default : Нет
    Alternate group : 1
    Дата кодирования : UTC 2016-07-02 07:53:18
    Дата пометки : UTC 2016-07-02 07:55:23
    Текст #1
    Идентификатор : 4
    Формат : Timed Text
    Режим смешивания : sbtl
    Идентификатор кодека : tx3g
    Продолжительность : 1 ч. 52 м.
    Вид битрейта : Переменный
    Битрейт : 2 бит/сек
    Размер потока : 1,57 Кбайт (0%)
    Заголовок : Russian Forced Subtitles
    Язык : Russian
    Default : Да
    Forced : Да
    Alternate group : 2
    Дата кодирования : UTC 2016-07-02 07:53:18
    Дата пометки : UTC 2016-07-02 07:55:19
    Subtitles For : 2
    Full Alternative : 5
    Текст #2
    Идентификатор : 5
    Формат : Timed Text
    Режим смешивания : sbtl
    Идентификатор кодека : tx3g
    Продолжительность : 1 ч. 55 м.
    Вид битрейта : Переменный
    Битрейт : 118 бит/сек
    Размер потока : 99,7 Кбайт (0%)
    Заголовок : Russian Subtitles
    Язык : Russian
    Default : Нет
    Forced : Нет
    Alternate group : 2
    Дата кодирования : UTC 2016-07-02 07:53:18
    Дата пометки : UTC 2016-07-02 07:55:22
    Subtitles For : 2
    Forced Alternative : 4
    Текст #3
    Идентификатор : 6
    Формат : Timed Text
    Режим смешивания : sbtl
    Идентификатор кодека : tx3g
    Продолжительность : 1 ч. 55 м.
    Вид битрейта : Переменный
    Битрейт : 77 бит/сек
    Размер потока : 65,7 Кбайт (0%)
    Заголовок : English Subtitles
    Язык : English
    Default : Нет
    Forced : Нет
    Alternate group : 2
    Дата кодирования : UTC 2016-07-02 07:53:18
    Дата пометки : UTC 2016-07-02 07:55:22
    Текст #4
    Идентификатор : 7
    Формат : Timed Text
    Режим смешивания : sbtl
    Идентификатор кодека : tx3g
    Продолжительность : 1 ч. 55 м.
    Вид битрейта : Переменный
    Битрейт : 64 бит/сек
    Размер потока : 54,1 Кбайт (0%)
    Заголовок : Spanish Subtitles
    Язык : Spanish
    Default : Нет
    Forced : Нет
    Alternate group : 2
    Дата кодирования : UTC 2016-07-02 07:53:18
    Дата пометки : UTC 2016-07-02 07:55:22
    Текст #5
    Идентификатор : 8
    Формат : Timed Text
    Режим смешивания : sbtl
    Идентификатор кодека : tx3g
    Продолжительность : 1 ч. 55 м.
    Вид битрейта : Переменный
    Битрейт : 69 бит/сек
    Размер потока : 58,1 Кбайт (0%)
    Заголовок : Finnish Subtitles
    Язык : Finnish
    Default : Нет
    Forced : Нет
    Alternate group : 2
    Дата кодирования : UTC 2016-07-02 07:53:18
    Дата пометки : UTC 2016-07-02 07:55:22
    Текст #6
    Идентификатор : 9
    Формат : Timed Text
    Режим смешивания : sbtl
    Идентификатор кодека : tx3g
    Продолжительность : 1 ч. 55 м.
    Вид битрейта : Переменный
    Битрейт : 56 бит/сек
    Размер потока : 47,5 Кбайт (0%)
    Заголовок : Swedish Subtitles
    Язык : Swedish
    Default : Нет
    Forced : Нет
    Alternate group : 2
    Дата кодирования : UTC 2016-07-02 07:53:18
    Дата пометки : UTC 2016-07-02 07:55:22
    Текст #7
    Идентификатор : 10
    Формат : Timed Text
    Режим смешивания : sbtl
    Идентификатор кодека : tx3g
    Продолжительность : 1 ч. 55 м.
    Вид битрейта : Переменный
    Битрейт : 62 бит/сек
    Размер потока : 52,8 Кбайт (0%)
    Заголовок : Danish Subtitles
    Язык : Danish
    Default : Нет
    Forced : Нет
    Alternate group : 2
    Дата кодирования : UTC 2016-07-02 07:53:18
    Дата пометки : UTC 2016-07-02 07:55:22
    Текст #8
    Идентификатор : 11
    Формат : Timed Text
    Режим смешивания : sbtl
    Идентификатор кодека : tx3g
    Продолжительность : 1 ч. 55 м.
    Вид битрейта : Переменный
    Битрейт : 77 бит/сек
    Размер потока : 65,6 Кбайт (0%)
    Заголовок : French Subtitles
    Язык : French
    Default : Нет
    Forced : Нет
    Alternate group : 2
    Дата кодирования : UTC 2016-07-02 07:53:18
    Дата пометки : UTC 2016-07-02 07:55:22
    Меню #1
    00:00:00.000 : "Я - скорость"
    00:09:27.692 : Новичок-одиночка
    00:13:38.108 : Спонсор героя
    00:16:09.134 : Шоссе в Калифорнию
    00:19:42.764 : В погоне за Маком
    00:24:23.170 : Сонный городок
    00:27:16.843 : Исчезновение МакКуина
    00:28:02.055 : Два Метра
    00:29:31.436 : Суд ведет Док Хадсон
    00:33:47.567 : Большая Бэсси
    00:35:43.558 : Гости в Радиатор Спрингс
    00:41:40.456 : МакКуин попадает впросак
    00:45:45.868 : Чудо-дорога
    00:48:30.324 : "Дернул вправо, свернул влево"
    00:50:28.775 : Хозяйка "Конуса"
    00:54:30.475 : "Трактора шугать потеха!"
    00:57:37.495 : Лучший друг Метра
    01:01:19.050 : Пустые обещания
    01:02:48.389 : Тайна Дока Хадсона
    01:05:32.553 : Недоверчивые горожане
    01:07:32.882 : Прогулка по окресностям
    01:09:39.091 : Мотель "Колесо"
    01:11:17.022 : Шоссе 66
    01:14:51.236 : Трактора в городе!
    01:15:47.584 : Печальная история Дока
    01:20:03.924 : МакКуин уходит по-английски
    01:22:11.468 : Лучший клиент Луиджи
    01:24:48.583 : Город мечты
    01:27:21.527 : Нашествие репортеров
    01:32:26.791 : Кубок Большого поршня
    01:46:07.402 : День исполнения желаний
    01:48:21.620 : Эпилог и титры
    Меню #2
    Идентификатор : 12
    Идентификатор кодека : text
    Продолжительность : 1 ч. 56 м.
    Заголовок : Chapter Titles
    Язык : Russian
    Дата кодирования : UTC 2016-07-02 07:55:23
    Дата пометки : UTC 2016-07-02 07:55:23
    Menu For : 2,1
    00:00:00.000 : "Я - скорость"
    00:09:27.692 : Новичок-одиночка
    00:13:38.108 : Спонсор героя
    00:16:09.134 : Шоссе в Калифорнию
    00:19:42.764 : В погоне за Маком
    00:24:23.170 : Сонный городок
    00:27:16.843 : Исчезновение МакКуина
    00:28:02.055 : Два Метра
    00:29:31.436 : Суд ведет Док Хадсон
    00:33:47.567 : Большая Бэсси
    00:35:43.558 : Гости в Радиатор Спрингс
    00:41:40.456 : МакКуин попадает впросак
    00:45:45.868 : Чудо-дорога
    00:48:30.324 : "Дернул вправо, свернул влево"
    00:50:28.775 : Хозяйка "Конуса"
    00:54:30.475 : "Трактора шугать потеха!"
    00:57:37.495 : Лучший друг Метра
    01:01:19.050 : Пустые обещания
    01:02:48.389 : Тайна Дока Хадсона
    01:05:32.553 : Недоверчивые горожане
    01:07:32.882 : Прогулка по окресностям
    01:09:39.091 : Мотель "Колесо"
    01:11:17.022 : Шоссе 66
    01:14:51.236 : Трактора в городе!
    01:15:47.584 : Печальная история Дока
    01:20:03.924 : МакКуин уходит по-английски
    01:22:11.468 : Лучший клиент Луиджи
    01:24:48.583 : Город мечты
    01:27:21.527 : Нашествие репортеров
    01:32:26.791 : Кубок Большого поршня
    01:46:07.402 : День исполнения желаний
    01:48:21.620 : Эпилог и титры
    Вид битрейта : VBR

    MediaInfo 720p Release

    Общее
    Полное имя : Cars (HD).m4v
    Формат : MPEG-4
    Идентификатор кодека : M4V  (M4V /M4A /mp42/isom)
    Размер файла : 4,50 Гбайт
    Продолжительность : 1 ч. 56 м.
    Режим общего битрейта : Переменный
    Общий поток : 5523 Кбит/сек
    Название фильма : Cars
    Исполнитель : John Lasseter
    Режиссёр : Джон Лассетер / Джо Рэнфт
    Исполнитель : Оуэн Уилсон / Пол Ньюман / Бонни Хант / Ларри Кейбл Гай / Чич Марин / Тони Шэлуб / Гуидо Куарони / Дженифер Льюис / Пол Дули / Майкл Уоллис
    Сценарист : Джон Лассетер / Джо Рэнфт / Йорген Клюбен
    Продюсер : Дарла К. Андерсон / Томас Портер
    Студия-производитель : Pixar
    Жанр : Kids & Family
    Тип содержимого : Short Film
    Описание : Неукротимый в своем желании всегда и во всем побеждать гоночный автомобиль "Молния" Маккуин вдруг обнаруживает, что сбился с пути и застрял в маленьком захолустном городке Радиатор-Спрингс, что находится где-то на трассе 66 в Калифорнии.
    Дата записи : UTC 2006-03-14 08:00:00
    Дата кодирования : UTC 2016-07-02 07:47:08
    Дата пометки : UTC 2016-07-02 07:57:12
    Авторское право : © 2006 Disney/Pixar
    Обложка : Yes
    Оценка : None
    Title/Sort : Cars 1
    LongDescription : Неукротимый в своем желании всегда и во всем побеждать гоночный автомобиль "Молния" Маккуин вдруг обнаруживает, что сбился с пути и застрял в маленьком захолустном городке Радиатор-Спрингс, что находится где-то на трассе 66 в Калифорнии. / Участвуя в гонках на Кубок Поршня, где ему противостояли два очень опытных соперника, Маккуин совершенно не ожидал, что отныне ему придется общаться с персонажами совсем иного рода. Это, например, Салли - шикарный Порше 2002-го года выпуска, Док Хадсон - легковушка модели "Хадсон Хорнет", 1951-го года выпуска или Метр - ржавый грузовичок-эвакуатор. И все они помогают Маккуину понять, что в мире существуют некоторые более важные вещи, чем слава, призы и спонсоры...
    HDVideo : Yes
    AppleStoreCatalogID : 188764984
    Vendor : Apple:vendor_id:2006-61249
    ContentRating : mpaa|G|100|
    Видео #1
    Идентификатор : 1
    Формат : AVC
    Формат/Информация : Advanced Video Codec
    Профиль формата : High@L3.1
    Параметр CABAC формата : Нет
    Параметр ReFrames формата : 2 кадра
    Идентификатор кодека : avc1
    Идентификатор кодека/Информация : Advanced Video Coding
    Продолжительность : 1 ч. 56 м.
    Продолжительность оригинала : 1 ч. 56 м.
    Битрейт : 3900 Кбит/сек
    Ширина : 1280 пикселей
    Высота : 528 пикселей
    Соотношение сторон : 2,40:1
    Режим частоты кадров : Переменный
    Частота кадров : 23,976 кадра/сек
    Минимальная частота кадров : 23,810 кадра/сек
    Максимальная частота кадров : 24,390 кадра/сек
    Цветовое пространство : YUV
    Субдискретизация насыщенности : 4:2:0
    Битовая глубина : 8 бит
    Тип развёртки : Прогрессивная
    Бит/(Пиксели*Кадры) : 0.241
    Размер потока : 3,17 Гбайт (71%)
    Размер потока оригинала : 3,17 Гбайт (71%)
    Заголовок : Main Program
    Библиотека кодирования : x264 core 100 r1659 57b2e56
    Настройки программы : cabac=0 / ref=2 / deblock=1:0:0 / analyse=0x3:0x113 / me=umh / subme=7 / psy=1 / psy_rd=1.00:0.00 / mixed_ref=1 / me_range=16 / chroma_me=1 / trellis=0 / 8x8dct=1 / cqm=0 / deadzone=21,11 / fast_pskip=0 / chroma_qp_offset=-2 / threads=3 / sliced_threads=0 / nr=0 / decimate=0 / interlaced=0 / constrained_intra=0 / bframes=3 / b_pyramid=0 / b_adapt=2 / b_bias=0 / direct=3 / weightb=0 / open_gop=0 / weightp=0 / keyint=240 / keyint_min=24 / scenecut=40 / intra_refresh=0 / rc_lookahead=40 / rc=2pass / mbtree=1 / bitrate=3900 / ratetol=1.0 / qcomp=0.60 / qpmin=10 / qpmax=51 / qpstep=4 / cplxblur=20.0 / qblur=0.5 / vbv_maxrate=9500 / vbv_bufsize=9500 / ip_ratio=1.40 / aq=1:1.00 / nal_hrd=none
    Язык : English
    Дата кодирования : UTC 2016-07-02 07:47:08
    Дата пометки : UTC 2016-07-02 07:52:38
    Цветовой диапазон : Limited
    Основные цвета : BT.709
    Характеристики трансфера : BT.709
    Коэффициенты матрицы : BT.709
    Menus : 14,15
    Видео #2
    Идентификатор : 15
    Формат : JPEG
    Идентификатор кодека : jpeg
    Продолжительность : 1 ч. 56 м.
    Вид битрейта : Переменный
    Битрейт : 2106 бит/сек
    Ширина : 640 пикселей
    Высота : 264 пикселя
    Соотношение сторон : 2,40:1
    Режим частоты кадров : Переменный
    Частота кадров : 0,005 кадр/сек
    Минимальная частота кадров : 0,001 кадр/сек
    Максимальная частота кадров : 0,022 кадр/сек
    Цветовое пространство : YUV
    Субдискретизация насыщенности : 4:2:0
    Битовая глубина : 8 бит
    Метод сжатия : С потерями
    Бит/(Пиксели*Кадры) : 2.493
    Размер потока : 1,61 Мбайт (0%)
    Заголовок : Chapter Images
    Язык : English
    Default : Нет
    Дата кодирования : UTC 2016-07-02 07:52:57
    Дата пометки : UTC 2016-07-02 07:52:57
    Menu For : 1
    Аудио #1
    Идентификатор : 2
    Формат : AAC
    Формат/Информация : Advanced Audio Codec
    Профиль формата : LC
    Идентификатор кодека : 40
    Продолжительность : 1 ч. 56 м.
    Вид битрейта : Переменный
    Битрейт : 168 Кбит/сек
    Максимальный битрейт : 259 Кбит/сек
    Каналы : 2 канала
    Расположение каналов : Front: L R
    Частота : 48,0 КГц
    Частота кадров : 46,875 кадров/сек (1024 spf)
    Метод сжатия : С потерями
    Размер потока : 140 Мбайт (3%)
    Заголовок : Russian DUB Stereo
    Язык : Russian
    Default : Да
    Alternate group : 1
    Дата кодирования : UTC 2016-07-02 07:47:08
    Дата пометки : UTC 2016-07-02 07:52:38
    Fallback From : 4
    Subtitles : 6,7
    Menus : 14
    Аудио #2
    Идентификатор : 3
    Формат : AAC
    Формат/Информация : Advanced Audio Codec
    Профиль формата : LC
    Идентификатор кодека : 40
    Продолжительность : 1 ч. 56 м.
    Вид битрейта : Переменный
    Битрейт : 168 Кбит/сек
    Максимальный битрейт : 260 Кбит/сек
    Каналы : 2 канала
    Расположение каналов : Front: L R
    Частота : 48,0 КГц
    Частота кадров : 46,875 кадров/сек (1024 spf)
    Метод сжатия : С потерями
    Размер потока : 141 Мбайт (3%)
    Заголовок : English Stereo
    Язык : English
    Default : Нет
    Alternate group : 1
    Дата кодирования : UTC 2016-07-02 07:47:08
    Дата пометки : UTC 2016-07-02 07:52:38
    Fallback From : 5
    Аудио #3
    Идентификатор : 4
    Формат : AC-3
    Формат/Информация : Audio Coding 3
    Расширение режима : CM (complete main)
    Параметр Endianness формата : Big
    Идентификатор кодека : ac-3
    Продолжительность : 1 ч. 56 м.
    Вид битрейта : Постоянный
    Битрейт : 640 Кбит/сек
    Каналы : 6 каналов
    Расположение каналов : Front: L C R, Side: L R, LFE
    Частота : 48,0 КГц
    Частота кадров : 31,250 кадров/сек (1536 spf)
    Битовая глубина : 16 бит
    Метод сжатия : С потерями
    Размер потока : 534 Мбайт (12%)
    Заголовок : Russian DUB DD 5.1
    Язык : Russian
    Default : Inherited From: 2
    Alternate group : 1
    Дата кодирования : UTC 2016-07-02 07:47:08
    Дата пометки : UTC 2016-07-02 07:52:38
    Fallback To : 2
    Subtitles : 6,7
    Аудио #4
    Идентификатор : 5
    Формат : AC-3
    Формат/Информация : Audio Coding 3
    Расширение режима : CM (complete main)
    Параметр Endianness формата : Big
    Идентификатор кодека : ac-3
    Продолжительность : 1 ч. 56 м.
    Вид битрейта : Постоянный
    Битрейт : 640 Кбит/сек
    Каналы : 6 каналов
    Расположение каналов : Front: L C R, Side: L R, LFE
    Частота : 48,0 КГц
    Частота кадров : 31,250 кадров/сек (1536 spf)
    Битовая глубина : 16 бит
    Метод сжатия : С потерями
    Размер потока : 534 Мбайт (12%)
    Заголовок : English DD 5.1
    Язык : English
    Default : Нет
    Alternate group : 1
    Дата кодирования : UTC 2016-07-02 07:47:08
    Дата пометки : UTC 2016-07-02 07:52:38
    Fallback To : 3
    Текст #1
    Идентификатор : 6
    Формат : Timed Text
    Режим смешивания : sbtl
    Идентификатор кодека : tx3g
    Продолжительность : 1 ч. 52 м.
    Вид битрейта : Переменный
    Битрейт : 2 бит/сек
    Размер потока : 1,57 Кбайт (0%)
    Заголовок : Russian Forced Subtitles
    Язык : Russian
    Default : Да
    Forced : Да
    Alternate group : 2
    Дата кодирования : UTC 2016-07-02 07:47:08
    Дата пометки : UTC 2016-07-02 07:52:28
    Subtitles For : 2,4
    Full Alternative : 7
    Текст #2
    Идентификатор : 7
    Формат : Timed Text
    Режим смешивания : sbtl
    Идентификатор кодека : tx3g
    Продолжительность : 1 ч. 55 м.
    Вид битрейта : Переменный
    Битрейт : 118 бит/сек
    Размер потока : 99,7 Кбайт (0%)
    Заголовок : Russian Subtitles
    Язык : Russian
    Default : Нет
    Forced : Нет
    Alternate group : 2
    Дата кодирования : UTC 2016-07-02 07:47:08
    Дата пометки : UTC 2016-07-02 07:52:36
    Subtitles For : 2,4
    Forced Alternative : 6
    Текст #3
    Идентификатор : 8
    Формат : Timed Text
    Режим смешивания : sbtl
    Идентификатор кодека : tx3g
    Продолжительность : 1 ч. 55 м.
    Вид битрейта : Переменный
    Битрейт : 77 бит/сек
    Размер потока : 65,7 Кбайт (0%)
    Заголовок : English Subtitles
    Язык : English
    Default : Нет
    Forced : Нет
    Alternate group : 2
    Дата кодирования : UTC 2016-07-02 07:47:08
    Дата пометки : UTC 2016-07-02 07:52:36
    Текст #4
    Идентификатор : 9
    Формат : Timed Text
    Режим смешивания : sbtl
    Идентификатор кодека : tx3g
    Продолжительность : 1 ч. 55 м.
    Вид битрейта : Переменный
    Битрейт : 64 бит/сек
    Размер потока : 54,1 Кбайт (0%)
    Заголовок : Spanish Subtitles
    Язык : Spanish
    Default : Нет
    Forced : Нет
    Alternate group : 2
    Дата кодирования : UTC 2016-07-02 07:47:08
    Дата пометки : UTC 2016-07-02 07:52:36
    Текст #5
    Идентификатор : 10
    Формат : Timed Text
    Режим смешивания : sbtl
    Идентификатор кодека : tx3g
    Продолжительность : 1 ч. 55 м.
    Вид битрейта : Переменный
    Битрейт : 69 бит/сек
    Размер потока : 58,1 Кбайт (0%)
    Заголовок : Finnish Subtitles
    Язык : Finnish
    Default : Нет
    Forced : Нет
    Alternate group : 2
    Дата кодирования : UTC 2016-07-02 07:47:08
    Дата пометки : UTC 2016-07-02 07:52:36
    Текст #6
    Идентификатор : 11
    Формат : Timed Text
    Режим смешивания : sbtl
    Идентификатор кодека : tx3g
    Продолжительность : 1 ч. 55 м.
    Вид битрейта : Переменный
    Битрейт : 56 бит/сек
    Размер потока : 47,5 Кбайт (0%)
    Заголовок : Swedish Subtitles
    Язык : Swedish
    Default : Нет
    Forced : Нет
    Alternate group : 2
    Дата кодирования : UTC 2016-07-02 07:47:08
    Дата пометки : UTC 2016-07-02 07:52:36
    Текст #7
    Идентификатор : 12
    Формат : Timed Text
    Режим смешивания : sbtl
    Идентификатор кодека : tx3g
    Продолжительность : 1 ч. 55 м.
    Вид битрейта : Переменный
    Битрейт : 62 бит/сек
    Размер потока : 52,8 Кбайт (0%)
    Заголовок : Danish Subtitles
    Язык : Danish
    Default : Нет
    Forced : Нет
    Alternate group : 2
    Дата кодирования : UTC 2016-07-02 07:47:08
    Дата пометки : UTC 2016-07-02 07:52:36
    Текст #8
    Идентификатор : 13
    Формат : Timed Text
    Режим смешивания : sbtl
    Идентификатор кодека : tx3g
    Продолжительность : 1 ч. 55 м.
    Вид битрейта : Переменный
    Битрейт : 77 бит/сек
    Размер потока : 65,6 Кбайт (0%)
    Заголовок : French Subtitles
    Язык : French
    Default : Нет
    Forced : Нет
    Alternate group : 2
    Дата кодирования : UTC 2016-07-02 07:47:08
    Дата пометки : UTC 2016-07-02 07:52:36
    Меню #1
    00:00:00.000 : "Я - скорость"
    00:09:27.692 : Новичок-одиночка
    00:13:38.108 : Спонсор героя
    00:16:09.134 : Шоссе в Калифорнию
    00:19:42.764 : В погоне за Маком
    00:24:23.170 : Сонный городок
    00:27:16.843 : Исчезновение МакКуина
    00:28:02.055 : Два Метра
    00:29:31.436 : Суд ведет Док Хадсон
    00:33:47.567 : Большая Бэсси
    00:35:43.558 : Гости в Радиатор Спрингс
    00:41:40.456 : МакКуин попадает впросак
    00:45:45.868 : Чудо-дорога
    00:48:30.324 : "Дернул вправо, свернул влево"
    00:50:28.775 : Хозяйка "Конуса"
    00:54:30.475 : "Трактора шугать потеха!"
    00:57:37.495 : Лучший друг Метра
    01:01:19.050 : Пустые обещания
    01:02:48.389 : Тайна Дока Хадсона
    01:05:32.553 : Недоверчивые горожане
    01:07:32.882 : Прогулка по окресностям
    01:09:39.091 : Мотель "Колесо"
    01:11:17.022 : Шоссе 66
    01:14:51.236 : Трактора в городе!
    01:15:47.584 : Печальная история Дока
    01:20:03.924 : МакКуин уходит по-английски
    01:22:11.468 : Лучший клиент Луиджи
    01:24:48.583 : Город мечты
    01:27:21.527 : Нашествие репортеров
    01:32:26.791 : Кубок Большого поршня
    01:46:07.402 : День исполнения желаний
    01:48:21.620 : Эпилог и титры
    Меню #2
    Идентификатор : 14
    Идентификатор кодека : text
    Продолжительность : 1 ч. 56 м.
    Заголовок : Chapter Titles
    Язык : Russian
    Дата кодирования : UTC 2016-07-02 07:52:38
    Дата пометки : UTC 2016-07-02 07:52:38
    Menu For : 2,1
    00:00:00.000 : "Я - скорость"
    00:09:27.692 : Новичок-одиночка
    00:13:38.108 : Спонсор героя
    00:16:09.134 : Шоссе в Калифорнию
    00:19:42.764 : В погоне за Маком
    00:24:23.170 : Сонный городок
    00:27:16.843 : Исчезновение МакКуина
    00:28:02.055 : Два Метра
    00:29:31.436 : Суд ведет Док Хадсон
    00:33:47.567 : Большая Бэсси
    00:35:43.558 : Гости в Радиатор Спрингс
    00:41:40.456 : МакКуин попадает впросак
    00:45:45.868 : Чудо-дорога
    00:48:30.324 : "Дернул вправо, свернул влево"
    00:50:28.775 : Хозяйка "Конуса"
    00:54:30.475 : "Трактора шугать потеха!"
    00:57:37.495 : Лучший друг Метра
    01:01:19.050 : Пустые обещания
    01:02:48.389 : Тайна Дока Хадсона
    01:05:32.553 : Недоверчивые горожане
    01:07:32.882 : Прогулка по окресностям
    01:09:39.091 : Мотель "Колесо"
    01:11:17.022 : Шоссе 66
    01:14:51.236 : Трактора в городе!
    01:15:47.584 : Печальная история Дока
    01:20:03.924 : МакКуин уходит по-английски
    01:22:11.468 : Лучший клиент Луиджи
    01:24:48.583 : Город мечты
    01:27:21.527 : Нашествие репортеров
    01:32:26.791 : Кубок Большого поршня
    01:46:07.402 : День исполнения желаний
    01:48:21.620 : Эпилог и титры
    Вид битрейта : VBR

    Скриншоты 480p Release

    Скриншоты 720p Release


    -
    Тачки 2 / Cars 2-

    iTunes Meta Tags for country ru

    Name: Тачки 2
    Artist: John Lasseter & Brad Lewis
    Genre: Kids & Family
    Release Date: 2011-06-18T08:00:00Z
    Description: Молния МакКуин и его друг Мэтр отправляются в международное путешествие - когда МакКуин получает шанс участвовать в соревнованиях для самых быстрых машин в мире...
    Long Description: Молния МакКуин и его друг Мэтр отправляются в международное путешествие - когда МакКуин получает шанс участвовать в соревнованиях для самых быстрых машин в мире, Мировом Гран-При. Этапы этих престижных гонок заведут друзей в Токио, на набережные Парижа, на побережье Италии, и на улицы туманного Лондона.
    Rating: 0+
    Rating Annotation: Rated 0+ Для любой зрительской аудитории
    Studio: Pixar
    Cast: Оуэн Уилсон, Ларри-кабельщик, Майкл Кейн, Эмили Мортимер, Эдди Иззард, Джон Туртурро, Брент Мусбургер, Джо Мантенья, Томас Кречман, Питер Джекобсон
    Director: Джон Лассетер, Брэд Льюис
    Producers: Денис Рим, Марк Нилсен
    Screenwriters: Бен Квин, Джон Лассетер, Брэд Льюис
    Copyright: © 2011 Disney/Pixar
    contentID: 537543079
    XID: Apple:vendor_id:2011-409013
    Sort Name: Тачки 2

    iTunes Meta Tags for country us

    Name: Cars 2
    Artist: John Lasseter & Brad Lewis
    Genre: Kids & Family
    Release Date: 2011-06-18T08:00:00Z
    Description: Молния МакКуин и его друг Мэтр отправляются в международное путешествие - когда МакКуин получает шанс участвовать в соревнованиях для самых быстрых машин в мире...
    Long Description: Молния МакКуин и его друг Мэтр отправляются в международное путешествие - когда МакКуин получает шанс участвовать в соревнованиях для самых быстрых машин в мире, Мировом Гран-При. Этапы этих престижных гонок заведут друзей в Токио, на набережные Парижа, на побережье Италии, и на улицы туманного Лондона.
    Rating: G
    Studio: Pixar
    Cast: Оуэн Уилсон, Ларри-кабельщик, Майкл Кейн, Эмили Мортимер, Эдди Иззард, Джон Туртурро, Брент Мусбургер, Джо Мантенья, Томас Кречман, Питер Джекобсон
    Director: Джон Лассетер, Брэд Льюис
    Producers: Денис Рим, Марк Нилсен
    Screenwriters: Бен Квин, Джон Лассетер, Брэд Льюис
    Copyright: © 2011 Disney/Pixar
    contentID: 450754772
    XID: Apple:vendor_id:2011-409013
    Sort Name: Cars 2

    MediaInfo 480p Release

    Общее
    Полное имя : Cars 2.m4v
    Формат : MPEG-4
    Идентификатор кодека : M4V  (M4V /M4A /mp42/isom)
    Размер файла : 1,47 Гбайт
    Продолжительность : 1 ч. 47 м.
    Режим общего битрейта : Переменный
    Общий поток : 1973 Кбит/сек
    Название фильма : Cars 2
    Исполнитель : John Lasseter & Brad Lewis
    Режиссёр : Джон Лассетер / Брэд Льюис
    Исполнитель : Оуэн Уилсон / Ларри-кабельщик / Майкл Кейн / Эмили Мортимер / Эдди Иззард / Джон Туртурро / Брент Мусбургер / Джо Мантенья / Томас Кречман / Питер Джекобсон
    Сценарист : Бен Квин / Джон Лассетер / Брэд Льюис
    Продюсер : Денис Рим / Марк Нилсен
    Студия-производитель : Pixar
    Жанр : Kids & Family
    Тип содержимого : Short Film
    Описание : Молния МакКуин и его друг Мэтр отправляются в международное путешествие - когда МакКуин получает шанс участвовать в соревнованиях для самых быстрых машин в мире...
    Дата записи : UTC 2011-06-18 08:00:00
    Дата кодирования : UTC 2016-07-02 13:33:36
    Дата пометки : UTC 2016-07-02 13:47:19
    Авторское право : © 2011 Disney/Pixar
    Обложка : Yes
    Оценка : None
    Title/Sort : Cars 2
    LongDescription : Молния МакКуин и его друг Мэтр отправляются в международное путешествие - когда МакКуин получает шанс участвовать в соревнованиях для самых быстрых машин в мире, Мировом Гран-При. Этапы этих престижных гонок заведут друзей в Токио, на набережные Парижа, на побережье Италии, и на улицы туманного Лондона.
    AppleStoreCatalogID : 450754772
    Vendor : Apple:vendor_id:2011-409013
    ContentRating : mpaa|G|100|
    Видео #1
    Идентификатор : 1
    Формат : AVC
    Формат/Информация : Advanced Video Codec
    Профиль формата : Baseline@L3
    Параметр CABAC формата : Нет
    Параметр ReFrames формата : 2 кадра
    Идентификатор кодека : avc1
    Идентификатор кодека/Информация : Advanced Video Coding
    Продолжительность : 1 ч. 47 м.
    Битрейт : 1700 Кбит/сек
    Ширина : 640 пикселей
    Высота : 356 пикселей
    Соотношение сторон : 2,40:1
    Режим частоты кадров : Переменный
    Частота кадров : 23,976 кадра/сек
    Минимальная частота кадров : 11,989 кадров/сек
    Максимальная частота кадров : 23,981 кадра/сек
    Цветовое пространство : YUV
    Субдискретизация насыщенности : 4:2:0
    Битовая глубина : 8 бит
    Тип развёртки : Прогрессивная
    Бит/(Пиксели*Кадры) : 0.311
    Размер потока : 1,27 Гбайт (86%)
    Заголовок : Main Program
    Библиотека кодирования : x264 core 112
    Настройки программы : cabac=0 / ref=2 / deblock=1:0:0 / analyse=0x1:0x111 / me=umh / subme=6 / psy=1 / psy_rd=1.00:0.00 / mixed_ref=1 / me_range=16 / chroma_me=1 / trellis=0 / 8x8dct=0 / cqm=0 / deadzone=21,11 / fast_pskip=1 / chroma_qp_offset=-2 / threads=36 / sliced_threads=0 / nr=0 / decimate=1 / interlaced=0 / constrained_intra=0 / bframes=0 / weightp=0 / keyint=240 / keyint_min=23 / scenecut=40 / intra_refresh=0 / rc_lookahead=40 / rc=2pass / mbtree=1 / bitrate=1700 / ratetol=1.0 / qcomp=0.60 / qpmin=3 / qpmax=51 / qpstep=4 / cplxblur=20.0 / qblur=0.5 / vbv_maxrate=5000 / vbv_bufsize=5000 / ip_ratio=1.40 / aq=1:1.00 / nal_hrd=none
    Язык : English
    Дата кодирования : UTC 2016-07-02 13:33:36
    Дата пометки : UTC 2016-07-02 13:34:42
    Цветовой диапазон : Limited
    Основные цвета : BT.709
    Характеристики трансфера : BT.709
    Коэффициенты матрицы : BT.709
    Menus : 8,9
    Видео #2
    Идентификатор : 9
    Формат : JPEG
    Идентификатор кодека : jpeg
    Продолжительность : 1 ч. 47 м.
    Вид битрейта : Переменный
    Битрейт : 1791 бит/сек
    Ширина : 640 пикселей
    Высота : 267 пикселей
    Соотношение сторон : 2,40:1
    Режим частоты кадров : Переменный
    Частота кадров : 0,005 кадр/сек
    Минимальная частота кадров : 0,002 кадр/сек
    Максимальная частота кадров : 0,025 кадр/сек
    Цветовое пространство : YUV
    Субдискретизация насыщенности : 4:2:0
    Битовая глубина : 8 бит
    Метод сжатия : С потерями
    Бит/(Пиксели*Кадры) : 2.096
    Размер потока : 1,41 Мбайт (0%)
    Заголовок : Chapter Images
    Язык : English
    Default : Нет
    Дата кодирования : UTC 2016-07-02 13:34:48
    Дата пометки : UTC 2016-07-02 13:34:49
    Menu For : 1
    Аудио #1
    Идентификатор : 2
    Формат : AAC
    Формат/Информация : Advanced Audio Codec
    Профиль формата : LC
    Идентификатор кодека : 40
    Продолжительность : 1 ч. 47 м.
    Вид битрейта : Переменный
    Битрейт : 132 Кбит/сек
    Максимальный битрейт : 219 Кбит/сек
    Каналы : 2 канала
    Расположение каналов : Front: L R
    Частота : 48,0 КГц
    Частота кадров : 46,875 кадров/сек (1024 spf)
    Метод сжатия : С потерями
    Размер потока : 101 Мбайт (7%)
    Заголовок : Russian DUB Blu-Ray CEE Stereo
    Язык : Russian
    Default : Да
    Alternate group : 1
    Дата кодирования : UTC 2016-07-02 13:33:36
    Дата пометки : UTC 2016-07-02 13:34:42
    Menus : 8
    Аудио #2
    Идентификатор : 3
    Формат : AAC
    Формат/Информация : Advanced Audio Codec
    Профиль формата : LC
    Идентификатор кодека : 40
    Продолжительность : 1 ч. 47 м.
    Вид битрейта : Переменный
    Битрейт : 132 Кбит/сек
    Максимальный битрейт : 220 Кбит/сек
    Каналы : 2 канала
    Расположение каналов : Front: L R
    Частота : 48,0 КГц
    Частота кадров : 46,875 кадров/сек (1024 spf)
    Метод сжатия : С потерями
    Размер потока : 101 Мбайт (7%)
    Заголовок : English Stereo
    Язык : English
    Default : Нет
    Alternate group : 1
    Дата кодирования : UTC 2016-07-02 13:33:36
    Дата пометки : UTC 2016-07-02 13:34:42
    Текст #1
    Идентификатор : 4
    Формат : Timed Text
    Режим смешивания : sbtl
    Идентификатор кодека : tx3g
    Продолжительность : 1 ч. 38 м.
    Вид битрейта : Переменный
    Битрейт : 148 бит/сек
    Размер потока : 106 Кбайт (0%)
    Заголовок : Russian Subtitle
    Язык : Russian
    Default : Да
    Forced : Нет
    Alternate group : 2
    Дата кодирования : UTC 2016-07-02 13:33:36
    Дата пометки : UTC 2016-07-02 13:34:36
    Текст #2
    Идентификатор : 5
    Формат : Timed Text
    Режим смешивания : sbtl
    Идентификатор кодека : tx3g
    Продолжительность : 1 ч. 38 м.
    Вид битрейта : Переменный
    Битрейт : 104 бит/сек
    Размер потока : 74,8 Кбайт (0%)
    Заголовок : English Subtitle
    Язык : English
    Default : Нет
    Forced : Нет
    Alternate group : 2
    Дата кодирования : UTC 2016-07-02 13:33:36
    Дата пометки : UTC 2016-07-02 13:34:36
    Текст #3
    Идентификатор : 6
    Формат : Timed Text
    Режим смешивания : sbtl
    Идентификатор кодека : tx3g
    Продолжительность : 1 ч. 38 м.
    Вид битрейта : Переменный
    Битрейт : 74 бит/сек
    Размер потока : 53,2 Кбайт (0%)
    Заголовок : French Subtitle
    Язык : French
    Default : Нет
    Forced : Нет
    Alternate group : 2
    Дата кодирования : UTC 2016-07-02 13:33:36
    Дата пометки : UTC 2016-07-02 13:34:36
    Текст #4
    Идентификатор : 7
    Формат : Timed Text
    Режим смешивания : sbtl
    Идентификатор кодека : tx3g
    Продолжительность : 1 ч. 38 м.
    Вид битрейта : Переменный
    Битрейт : 101 бит/сек
    Размер потока : 73,0 Кбайт (0%)
    Заголовок : Portuguese Subtitle
    Язык : Portuguese
    Default : Нет
    Forced : Нет
    Alternate group : 2
    Дата кодирования : UTC 2016-07-02 13:33:36
    Дата пометки : UTC 2016-07-02 13:34:36
    Меню #1
    00:00:00.000 : Communiqué
    00:01:29.172 : Знакомство с Финном
    00:04:47.578 : Побег
    00:07:43.671 : Радиатор-Спрингс
    00:12:07.893 : Звонок Мэтра
    00:17:48.942 : Монтаж путешествия
    00:20:01.324 : Вечеринка
    00:22:51.536 : Сбор
    00:26:34.634 : Туалет
    00:30:30.161 : Логово Драндулетов
    00:32:41.959 : Японская передача
    00:34:13.509 : Первый круг
    00:37:15.566 : Свидание Мэтра
    00:40:44.149 : Виктори-Лейн
    00:42:53.153 : Аэропорт
    00:46:18.567 : Записка Мэтра
    00:46:57.939 : Агент Мэтр
    00:49:48.526 : Париж
    00:53:56.399 : Отличная мысль Холли
    00:54:57.251 : Дядя Тополино
    00:57:36.202 : Шпионский поезд
    00:59:27.730 : Порто Корса
    01:02:16.941 : Проникновение в казино
    01:05:56.285 : Драндулеты разбушевались
    01:12:31.763 : Мэтр предупреждает МакКуина
    01:14:05.899 : Воспоминание Мэтра
    01:15:24.185 : Биг Бентли
    01:21:12.992 : Бомба
    01:23:22.246 : Погоня в Лондоне
    01:29:06.924 : Букингемский дворец
    01:31:48.126 : Посвящение в рыцари
    01:32:41.221 : Эпилог
    01:38:18.600 : Финальные титры
    Меню #2
    Идентификатор : 8
    Идентификатор кодека : text
    Продолжительность : 1 ч. 47 м.
    Заголовок : Chapter Titles
    Язык : Russian
    Дата кодирования : UTC 2016-07-02 13:34:42
    Дата пометки : UTC 2016-07-02 13:34:42
    Menu For : 2,1
    00:00:00.000 : Communiqué
    00:01:29.172 : Знакомство с Финном
    00:04:47.578 : Побег
    00:07:43.671 : Радиатор-Спрингс
    00:12:07.893 : Звонок Мэтра
    00:17:48.942 : Монтаж путешествия
    00:20:01.324 : Вечеринка
    00:22:51.536 : Сбор
    00:26:34.634 : Туалет
    00:30:30.161 : Логово Драндулетов
    00:32:41.959 : Японская передача
    00:34:13.509 : Первый круг
    00:37:15.566 : Свидание Мэтра
    00:40:44.149 : Виктори-Лейн
    00:42:53.153 : Аэропорт
    00:46:18.567 : Записка Мэтра
    00:46:57.939 : Агент Мэтр
    00:49:48.526 : Париж
    00:53:56.399 : Отличная мысль Холли
    00:54:57.251 : Дядя Тополино
    00:57:36.202 : Шпионский поезд
    00:59:27.730 : Порто Корса
    01:02:16.941 : Проникновение в казино
    01:05:56.285 : Драндулеты разбушевались
    01:12:31.763 : Мэтр предупреждает МакКуина
    01:14:05.899 : Воспоминание Мэтра
    01:15:24.185 : Биг Бентли
    01:21:12.992 : Бомба
    01:23:22.246 : Погоня в Лондоне
    01:29:06.924 : Букингемский дворец
    01:31:48.126 : Посвящение в рыцари
    01:32:41.221 : Эпилог
    01:38:18.600 : Финальные титры
    Вид битрейта : VBR

    MediaInfo 720p Release

    Общее
    Полное имя : Cars 2 (HD).m4v
    Формат : MPEG-4
    Идентификатор кодека : M4V  (M4V /M4A /mp42/isom)
    Размер файла : 4,25 Гбайт
    Продолжительность : 1 ч. 47 м.
    Режим общего битрейта : Переменный
    Общий поток : 5684 Кбит/сек
    Название фильма : Cars 2
    Исполнитель : John Lasseter & Brad Lewis
    Режиссёр : Джон Лассетер / Брэд Льюис
    Исполнитель : Оуэн Уилсон / Ларри-кабельщик / Майкл Кейн / Эмили Мортимер / Эдди Иззард / Джон Туртурро / Брент Мусбургер / Джо Мантенья / Томас Кречман / Питер Джекобсон
    Сценарист : Бен Квин / Джон Лассетер / Брэд Льюис
    Продюсер : Денис Рим / Марк Нилсен
    Студия-производитель : Pixar
    Жанр : Kids & Family
    Тип содержимого : Short Film
    Описание : Молния МакКуин и его друг Мэтр отправляются в международное путешествие - когда МакКуин получает шанс участвовать в соревнованиях для самых быстрых машин в мире...
    Дата записи : UTC 2011-06-18 08:00:00
    Дата кодирования : UTC 2016-07-02 13:27:32
    Дата пометки : UTC 2016-07-02 13:44:50
    Авторское право : © 2011 Disney/Pixar
    Обложка : Yes
    Оценка : None
    Title/Sort : Cars 2
    LongDescription : Молния МакКуин и его друг Мэтр отправляются в международное путешествие - когда МакКуин получает шанс участвовать в соревнованиях для самых быстрых машин в мире, Мировом Гран-При. Этапы этих престижных гонок заведут друзей в Токио, на набережные Парижа, на побережье Италии, и на улицы туманного Лондона.
    HDVideo : Yes
    AppleStoreCatalogID : 450754772
    Vendor : Apple:vendor_id:2011-409013
    ContentRating : mpaa|G|100|
    Видео #1
    Идентификатор : 1
    Формат : AVC
    Формат/Информация : Advanced Video Codec
    Профиль формата : High@L3.1
    Параметр CABAC формата : Нет
    Параметр ReFrames формата : 3 кадра
    Идентификатор кодека : avc1
    Идентификатор кодека/Информация : Advanced Video Coding
    Продолжительность : 1 ч. 47 м.
    Продолжительность оригинала : 1 ч. 47 м.
    Битрейт : 4000 Кбит/сек
    Ширина : 1280 пикселей
    Высота : 532 пикселя
    Соотношение сторон : 2,40:1
    Режим частоты кадров : Переменный
    Частота кадров : 23,976 (24000/1001) кадра/сек
    Минимальная частота кадров : 23,974 кадра/сек
    Максимальная частота кадров : 23,981 кадра/сек
    Цветовое пространство : YUV
    Субдискретизация насыщенности : 4:2:0
    Битовая глубина : 8 бит
    Тип развёртки : Прогрессивная
    Бит/(Пиксели*Кадры) : 0.245
    Размер потока : 2,99 Гбайт (70%)
    Размер потока оригинала : 2,99 Гбайт (70%)
    Заголовок : Main Program
    Библиотека кодирования : x264 core 112
    Настройки программы : cabac=0 / ref=3 / deblock=1:-3:-2 / analyse=0x3:0x113 / me=umh / subme=9 / psy=1 / psy_rd=0.70:0.00 / mixed_ref=1 / me_range=32 / chroma_me=1 / trellis=0 / 8x8dct=1 / cqm=0 / deadzone=21,11 / fast_pskip=0 / chroma_qp_offset=-2 / threads=36 / sliced_threads=0 / nr=0 / decimate=1 / interlaced=0 / constrained_intra=0 / bframes=3 / b_pyramid=0 / b_adapt=2 / b_bias=0 / direct=1 / weightb=0 / open_gop=0 / weightp=0 / keyint=240 / keyint_min=23 / scenecut=40 / intra_refresh=0 / rc_lookahead=40 / rc=2pass / mbtree=1 / bitrate=4000 / ratetol=1.0 / qcomp=0.80 / qpmin=0 / qpmax=51 / qpstep=4 / cplxblur=20.0 / qblur=0.5 / vbv_maxrate=9500 / vbv_bufsize=9500 / ip_ratio=1.40 / aq=1:1.00 / nal_hrd=none
    Язык : English
    Дата кодирования : UTC 2016-07-02 13:27:33
    Дата пометки : UTC 2016-07-02 13:31:34
    Цветовой диапазон : Limited
    Основные цвета : BT.709
    Характеристики трансфера : BT.709
    Коэффициенты матрицы : BT.709
    Menus : 10,11
    Видео #2
    Идентификатор : 11
    Формат : JPEG
    Идентификатор кодека : jpeg
    Продолжительность : 1 ч. 47 м.
    Вид битрейта : Переменный
    Битрейт : 1929 бит/сек
    Ширина : 640 пикселей
    Высота : 266 пикселей
    Соотношение сторон : 2,40:1
    Режим частоты кадров : Переменный
    Частота кадров : 0,005 кадр/сек
    Минимальная частота кадров : 0,002 кадр/сек
    Максимальная частота кадров : 0,025 кадр/сек
    Цветовое пространство : YUV
    Субдискретизация насыщенности : 4:2:0
    Битовая глубина : 8 бит
    Метод сжатия : С потерями
    Бит/(Пиксели*Кадры) : 2.266
    Размер потока : 1,52 Мбайт (0%)
    Заголовок : Chapter Images
    Язык : English
    Default : Нет
    Дата кодирования : UTC 2016-07-02 13:31:43
    Дата пометки : UTC 2016-07-02 13:31:44
    Menu For : 1
    Аудио #1
    Идентификатор : 2
    Формат : AAC
    Формат/Информация : Advanced Audio Codec
    Профиль формата : LC
    Идентификатор кодека : 40
    Продолжительность : 1 ч. 47 м.
    Вид битрейта : Переменный
    Битрейт : 198 Кбит/сек
    Максимальный битрейт : 324 Кбит/сек
    Каналы : 2 канала
    Расположение каналов : Front: L R
    Частота : 48,0 КГц
    Частота кадров : 46,875 кадров/сек (1024 spf)
    Метод сжатия : С потерями
    Размер потока : 152 Мбайт (3%)
    Заголовок : Russian DUB Blu-Ray CEE Stereo
    Язык : Russian
    Default : Да
    Alternate group : 1
    Дата кодирования : UTC 2016-07-02 13:27:33
    Дата пометки : UTC 2016-07-02 13:31:34
    Fallback From : 4
    Menus : 10
    Аудио #2
    Идентификатор : 3
    Формат : AAC
    Формат/Информация : Advanced Audio Codec
    Профиль формата : LC
    Идентификатор кодека : 40
    Продолжительность : 1 ч. 47 м.
    Вид битрейта : Переменный
    Битрейт : 198 Кбит/сек
    Максимальный битрейт : 320 Кбит/сек
    Каналы : 2 канала
    Расположение каналов : Front: L R
    Частота : 48,0 КГц
    Частота кадров : 46,875 кадров/сек (1024 spf)
    Метод сжатия : С потерями
    Размер потока : 152 Мбайт (3%)
    Заголовок : English Stereo
    Язык : English
    Default : Нет
    Alternate group : 1
    Дата кодирования : UTC 2016-07-02 13:27:33
    Дата пометки : UTC 2016-07-02 13:31:34
    Fallback From : 5
    Аудио #3
    Идентификатор : 4
    Формат : AC-3
    Формат/Информация : Audio Coding 3
    Расширение режима : CM (complete main)
    Параметр Endianness формата : Big
    Идентификатор кодека : ac-3
    Продолжительность : 1 ч. 47 м.
    Вид битрейта : Постоянный
    Битрейт : 640 Кбит/сек
    Каналы : 6 каналов
    Расположение каналов : Front: L C R, Side: L R, LFE
    Частота : 48,0 КГц
    Частота кадров : 31,250 кадров/сек (1536 spf)
    Битовая глубина : 16 бит
    Метод сжатия : С потерями
    Размер потока : 490 Мбайт (11%)
    Заголовок : Russian DUB Blu-Ray CEE DD 5.1
    Язык : Russian
    Default : Inherited From: 2
    Alternate group : 1
    Дата кодирования : UTC 2016-07-02 13:27:33
    Дата пометки : UTC 2016-07-02 13:31:34
    Fallback To : 2
    Аудио #4
    Идентификатор : 5
    Формат : AC-3
    Формат/Информация : Audio Coding 3
    Расширение режима : CM (complete main)
    Параметр Endianness формата : Big
    Идентификатор кодека : ac-3
    Продолжительность : 1 ч. 47 м.
    Вид битрейта : Постоянный
    Битрейт : 640 Кбит/сек
    Каналы : 6 каналов
    Расположение каналов : Front: L C R, Side: L R, LFE
    Частота : 48,0 КГц
    Частота кадров : 31,250 кадров/сек (1536 spf)
    Битовая глубина : 16 бит
    Метод сжатия : С потерями
    Размер потока : 490 Мбайт (11%)
    Заголовок : English DD 5.1
    Язык : English
    Default : Нет
    Alternate group : 1
    Дата кодирования : UTC 2016-07-02 13:27:33
    Дата пометки : UTC 2016-07-02 13:31:34
    Fallback To : 3
    Текст #1
    Идентификатор : 6
    Формат : Timed Text
    Режим смешивания : sbtl
    Идентификатор кодека : tx3g
    Продолжительность : 1 ч. 38 м.
    Вид битрейта : Переменный
    Битрейт : 148 бит/сек
    Размер потока : 106 Кбайт (0%)
    Заголовок : Russian Subtitle
    Язык : Russian
    Default : Да
    Forced : Нет
    Alternate group : 2
    Дата кодирования : UTC 2016-07-02 13:27:33
    Дата пометки : UTC 2016-07-02 13:31:12
    Текст #2
    Идентификатор : 7
    Формат : Timed Text
    Режим смешивания : sbtl
    Идентификатор кодека : tx3g
    Продолжительность : 1 ч. 38 м.
    Вид битрейта : Переменный
    Битрейт : 104 бит/сек
    Размер потока : 74,8 Кбайт (0%)
    Заголовок : English Subtitle
    Язык : English
    Default : Нет
    Forced : Нет
    Alternate group : 2
    Дата кодирования : UTC 2016-07-02 13:27:33
    Дата пометки : UTC 2016-07-02 13:31:12
    Текст #3
    Идентификатор : 8
    Формат : Timed Text
    Режим смешивания : sbtl
    Идентификатор кодека : tx3g
    Продолжительность : 1 ч. 38 м.
    Вид битрейта : Переменный
    Битрейт : 74 бит/сек
    Размер потока : 53,2 Кбайт (0%)
    Заголовок : French Subtitle
    Язык : French
    Default : Нет
    Forced : Нет
    Alternate group : 2
    Дата кодирования : UTC 2016-07-02 13:27:33
    Дата пометки : UTC 2016-07-02 13:31:12
    Текст #4
    Идентификатор : 9
    Формат : Timed Text
    Режим смешивания : sbtl
    Идентификатор кодека : tx3g
    Продолжительность : 1 ч. 38 м.
    Вид битрейта : Переменный
    Битрейт : 101 бит/сек
    Размер потока : 73,0 Кбайт (0%)
    Заголовок : Portuguese Subtitle
    Язык : Portuguese
    Default : Нет
    Forced : Нет
    Alternate group : 2
    Дата кодирования : UTC 2016-07-02 13:27:33
    Дата пометки : UTC 2016-07-02 13:31:12
    Меню #1
    00:00:00.000 : Communiqué
    00:01:29.172 : Знакомство с Финном
    00:04:47.578 : Побег
    00:07:43.671 : Радиатор-Спрингс
    00:12:07.893 : Звонок Мэтра
    00:17:48.942 : Монтаж путешествия
    00:20:01.324 : Вечеринка
    00:22:51.536 : Сбор
    00:26:34.634 : Туалет
    00:30:30.161 : Логово Драндулетов
    00:32:41.959 : Японская передача
    00:34:13.509 : Первый круг
    00:37:15.566 : Свидание Мэтра
    00:40:44.149 : Виктори-Лейн
    00:42:53.153 : Аэропорт
    00:46:18.567 : Записка Мэтра
    00:46:57.939 : Агент Мэтр
    00:49:48.526 : Париж
    00:53:56.399 : Отличная мысль Холли
    00:54:57.251 : Дядя Тополино
    00:57:36.202 : Шпионский поезд
    00:59:27.730 : Порто Корса
    01:02:16.941 : Проникновение в казино
    01:05:56.285 : Драндулеты разбушевались
    01:12:31.763 : Мэтр предупреждает МакКуина
    01:14:05.899 : Воспоминание Мэтра
    01:15:24.185 : Биг Бентли
    01:21:12.992 : Бомба
    01:23:22.246 : Погоня в Лондоне
    01:29:06.924 : Букингемский дворец
    01:31:48.126 : Посвящение в рыцари
    01:32:41.221 : Эпилог
    01:38:18.600 : Финальные титры
    Меню #2
    Идентификатор : 10
    Идентификатор кодека : text
    Продолжительность : 1 ч. 47 м.
    Заголовок : Chapter Titles
    Язык : Russian
    Дата кодирования : UTC 2016-07-02 13:31:34
    Дата пометки : UTC 2016-07-02 13:31:34
    Menu For : 2,1
    00:00:00.000 : Communiqué
    00:01:29.172 : Знакомство с Финном
    00:04:47.578 : Побег
    00:07:43.671 : Радиатор-Спрингс
    00:12:07.893 : Звонок Мэтра
    00:17:48.942 : Монтаж путешествия
    00:20:01.324 : Вечеринка
    00:22:51.536 : Сбор
    00:26:34.634 : Туалет
    00:30:30.161 : Логово Драндулетов
    00:32:41.959 : Японская передача
    00:34:13.509 : Первый круг
    00:37:15.566 : Свидание Мэтра
    00:40:44.149 : Виктори-Лейн
    00:42:53.153 : Аэропорт
    00:46:18.567 : Записка Мэтра
    00:46:57.939 : Агент Мэтр
    00:49:48.526 : Париж
    00:53:56.399 : Отличная мысль Холли
    00:54:57.251 : Дядя Тополино
    00:57:36.202 : Шпионский поезд
    00:59:27.730 : Порто Корса
    01:02:16.941 : Проникновение в казино
    01:05:56.285 : Драндулеты разбушевались
    01:12:31.763 : Мэтр предупреждает МакКуина
    01:14:05.899 : Воспоминание Мэтра
    01:15:24.185 : Биг Бентли
    01:21:12.992 : Бомба
    01:23:22.246 : Погоня в Лондоне
    01:29:06.924 : Букингемский дворец
    01:31:48.126 : Посвящение в рыцари
    01:32:41.221 : Эпилог
    01:38:18.600 : Финальные титры
    Вид битрейта : VBR

    x264 лог 480p Release

    HandBrakeCLI -i "/CARS2_D1_HDCLUB/BDMV/STREAM/Cars2.m2ts" -t 1 -c 1 -o "Cars.m4v"  -f mp4 -I  -O  -w 640 -l 356 --crop 140:140:0:0 --custom-anamorphic  --modulus 4 --pixel-aspect 852:640  -e x264 -b 1700 -2  -a none  -x cabac=0:ref=2:me=umh:bframes=0:weightp=0:subq=6:8x8dct=0:trellis=0:vbv-maxrate=5000:vbv-bufsize=5000 --verbose=1
    x264 [info]: frame I:2368  Avg QP:16.83  size: 42202  PSNR Mean Y:46.93 U:49.48 V:49.56 Avg:47.59 Global:46.87
    x264 [info]: frame P:151593 Avg QP:19.88  size:  8338  PSNR Mean Y:43.92 U:46.34 V:46.44 Avg:44.53 Global:43.85
    x264 [info]: mb I  I16..4: 14.7%  0.0% 85.3%
    x264 [info]: mb P  I16..4:  1.3%  0.0%  4.0%  P16..4: 37.0% 21.5%  9.9%  0.0%  0.0%    skip:26.3%
    x264 [info]: coded y,uvDC,uvAC intra: 68.2% 80.6% 59.6% inter: 29.1% 29.4% 14.3%
    x264 [info]: i16 v,h,dc,p: 33% 27%  8% 32%
    x264 [info]: i4 v,h,dc,ddl,ddr,vr,hd,vl,hu: 30% 23% 13%  5%  6%  6%  7%  5%  6%
    x264 [info]: i8c dc,h,v,p: 42% 27% 22%  9%
    x264 [info]: ref P L0: 75.7% 24.3%
    x264 [info]: SSIM Mean Y:0.9880927 (19.242db)
    x264 [info]: PSNR Mean Y:43.963 U:46.387 V:46.487 Avg:44.576 Global:43.886 kb/s:1699.21

    x264 лог 720p Release

    HandBrakeCLI -i "/CARS2_D1_HDCLUB/BDMV/STREAM/Cars2.m2ts" -t 1 -c 1 -o "Cars 2 (HD).m4v"  -f mp4 -4  -O  -w 1280 -l 532 --crop 140:140:0:0 --modulus 4 -e x264 -b 4000 -2  -a none  -x cabac=0:ref=3:me=umh:b-pyramid=none:b-adapt=2:weightb=0:trellis=0:weightp=0:vbv-maxrate=9500:vbv-bufsize=9500:subq=9:merange=32:deblock=-3,-2:qcomp=0.80:qpmin=0:qpmax=69:psy-rd=0.7,0.20:fast_pskip=0 --verbose=1
    x264 [info]: frame I:1937  Avg QP:14.47  size:118701  PSNR Mean Y:48.94 U:50.92 V:51.02 Avg:49.49 Global:49.07
    x264 [info]: frame P:68103 Avg QP:16.60  size: 31237  PSNR Mean Y:46.57 U:48.65 V:48.76 Avg:47.12 Global:46.56
    x264 [info]: frame B:83921 Avg QP:18.50  size: 10128  PSNR Mean Y:46.29 U:48.36 V:48.44 Avg:46.82 Global:46.27
    x264 [info]: consecutive B-frames:  6.4% 47.9% 36.1%  9.6%
    x264 [info]: mb I  I16..4:  6.0% 44.3% 49.7%
    x264 [info]: mb P  I16..4:  1.9%  7.4%  5.1%  P16..4: 35.9% 24.7% 10.5%  0.0%  0.0%    skip:14.5%
    x264 [info]: mb B  I16..4:  0.5%  1.5%  1.2%  B16..8: 32.4% 12.8%  2.2%  direct: 4.3%  skip:45.1%  L0:35.5% L1:46.5% BI:18.0%
    x264 [info]: 8x8 transform intra:49.7% inter:46.2%
    x264 [info]: coded y,uvDC,uvAC intra: 76.8% 83.2% 67.7% inter: 19.2% 21.6% 9.0%
    x264 [info]: i16 v,h,dc,p: 32% 29%  6% 34%
    x264 [info]: i8 v,h,dc,ddl,ddr,vr,hd,vl,hu: 13% 23% 10%  7%  8%  7% 11%  7% 13%
    x264 [info]: i4 v,h,dc,ddl,ddr,vr,hd,vl,hu: 21% 23%  6%  6% 10%  8% 12%  6%  8%
    x264 [info]: i8c dc,h,v,p: 41% 31% 17% 11%
    x264 [info]: ref P L0: 73.4% 16.7% 10.0%
    x264 [info]: ref B L0: 81.6% 18.4%
    x264 [info]: SSIM Mean Y:0.9912714 (20.591db)
    x264 [info]: PSNR Mean Y:46.445 U:48.522 V:48.616 Avg:46.989 Global:46.419 kb/s:3995.53

    Скриншоты 480p Release

    Скриншоты 720p Release

    -

    Релиз подготовлен для просмотра на Apple TV, iPad, iPhone, iPod Touch.
    Для просмотра данного релиза на компьютере с ОС Windows рекомендуется использовать VLC media player
    Скачать .torrent

    Скачать торрент-файл бесплатно и на максимальной скорости!

    Как скачивать? · Что такое торрент? · Рейтинг и ограничения

    !ВНИМАНИЕ!
    Сайт не распространяет и не хранит электронные версии произведений, а занимается лишь лишь предоставлением доступа к создаваемому пользователями каталогу ссылок на торрент-файлы, которые содержат только списки хеш-сумм, убедительная просьба с жалобами обращаться напрямую к пользователю. Файлы для обмена на трекере предоставлены пользователями сайта, и администрация не несёт ответственности за их содержание. Просьба не заливать файлы, защищенные авторскими правами, а также файлы нелегального содержания!


    _________________
    [Профиль] [ЛС]
    Показать сообщения:    
    Ответить на тему

    Текущее время: Сегодня, в 18:50

    Часовой пояс: GMT + 2



    Вы не можете начинать темы
    Вы не можете отвечать на сообщения
    Вы не можете редактировать свои сообщения
    Вы не можете удалять свои сообщения
    Вы не можете голосовать в опросах
    Вы не можете прикреплять файлы к сообщениям
    Вы не можете скачивать файлы