BitTorrentTracker PerecTracker.org
BitTorrentTracker PerecTracker.org
    
Регистрация  ·  Вход
 
 · 
Забыли пароль?

  • Страшные сказки / Tale of Tales / Il racconto dei racconti (Маттео Гарроне / Matteo Garrone) [2015, Италия, Франция, Великобритания, ужасы, фэнтези, мелодрама, BDRip-AVC] Dub + Original + Sub (rus, eng)

    Ответить на тему
     
    Автор Сообщение

    Light

    Создавать темы 03-Июл-2016 01:40

           

    [Цитировать]

    Страшные сказки / Tale of Tales / Il racconto dei racconti«A feast for the imagination»-Страна: Италия, Франция, Великобритания
    Жанр: ужасы, фэнтези, мелодрама
    Год выпуска: 2015
    Продолжительность: 02:13:30
    Перевод: Профессиональный (дублированный) (Blu-ray RUS)
    Оригинальная аудиодорожка: английский
    Субтитры: русские (полные) английские (полные)
    Навигация по главам: есть
    Режиссер: Маттео Гарроне / Matteo Garrone
    В ролях: Сальма Хайек (Queen of Longtrellis), Венсан Кассель (King of Strongcliff), Тоби Джонс (King of Highhills), Джон Си Райли (King of Longtrellis), Ширли Хендерсон (Imma), Хейли Кармайкл (Dora), Бебе Кейв (Violet), Стэйси Мартин (Young Dora), Кристиан Лис (Elias), Джона Лис (Jonah), Лаура Пиццирани (Jonah's Mother), Франко Пистони (Necromancer)
    Описание: Маги и волшебники, короли и королевы, красавицы-принцессы и страшилы-великаны населяют эту потрясающую готическую фантазию. Сластолюбивый Король Одинокого Утеса берет в жены прелестную деву, а она превращается в уродливую старуху. Отважный Король Долины Туманов отправляется на бой с драконом, поскольку волшебник предсказал, что королева понесет ребенка, если съест сердце дракона. Ну, а Король Диких Гор с любовью выращивает гигантскую блоху, а родную дочь без тени сожаления отдает в жены горному огру. За стенами величественных замков строятся коварные козни, даются безрассудные обеты, там страстно любят и жестоко убивают...- -Качество: BDRip-AVC (исходник - Blu-ray|TALE_OF_TALES_HDCLUB)
    Формат видео: MKV
    Видео: x264, 1152x490 (2.35:1), 24 fps, ~2157 kbps, 0.159 bit/pixel
    Аудио 1: 48 kHz, AC3 Dolby Digital, 3/2 (L,C,R,l,r) + LFE ch, ~448 kbps [русский]
    Аудио 2: 48 kHz, AC3 Dolby Digital, 3/2 (L,C,R,l,r) + LFE ch, ~448 kbps [английский]
    Формат субтитров: softsub (SRT)-MediaInfo | x264 log
    Format : Matroska
    Format version : Version 4 / Version 2
    File size : 2.90 GiB
    Duration : 2h 13mn
    Overall bit rate : 3 115 Kbps
    Movie name : Страшные сказки / Tale of Tales / Il racconto dei racconti (2015) :: AFM ::
    Encoded date : UTC 2016-07-01 10:20:48
    Writing application : mkvmerge v8.3.0 ('Over the Horizon') 32bit
    Writing library : libebml v1.3.1 + libmatroska v1.4.2
    Video
    ID : 1
    Format : AVC
    Format/Info : Advanced Video Codec
    Format profile : High@L4.1
    Format settings, CABAC : Yes
    Format settings, ReFrames : 12 frames
    Codec ID : V_MPEG4/ISO/AVC
    Duration : 2h 13mn
    Bit rate : 2 157 Kbps
    Width : 1 152 pixels
    Height : 490 pixels
    Display aspect ratio : 2.35:1
    Frame rate mode : Constant
    Frame rate : 24.000 fps
    Color space : YUV
    Chroma subsampling : 4:2:0
    Bit depth : 8 bits
    Scan type : Progressive
    Bits/(Pixel*Frame) : 0.159
    Stream size : 2.01 GiB (69%)
    Title : BDRip by AFM [RuTracker.org]
    Writing library : x264 core 148 r2705+54 9f484c1 t_mod_Custom [8-bit@all X86_64]
    Encoding settings : cabac=1 / ref=12 / deblock=1:-2:-2 / analyse=0x3:0x113 / me=umh / subme=10 / psy=1 / fade_compensate=0.00 / psy_rd=1.00:0.00 / mixed_ref=1 / me_range=32 / chroma_me=1 / trellis=2 / 8x8dct=1 / cqm=0 / deadzone=21,11 / fast_pskip=0 / chroma_qp_offset=-2 / threads=6 / lookahead_threads=1 / sliced_threads=0 / nr=0 / decimate=1 / interlaced=0 / bluray_compat=0 / constrained_intra=0 / fgo=0 / bframes=13 / b_pyramid=2 / b_adapt=2 / b_bias=0 / direct=1 / weightb=1 / open_gop=0 / weightp=2 / keyint=250 / keyint_min=23 / scenecut=40 / intra_refresh=0 / rc_lookahead=40 / rc=crf / mbtree=0 / crf=18.2000 / qcomp=0.65 / qpmin=0:0:0 / qpmax=69:69:69 / qpstep=4 / vbv_maxrate=50000 / vbv_bufsize=62500 / crf_max=0.0 / nal_hrd=none / filler=0 / ip_ratio=1.30 / pb_ratio=1.20 / aq=1:0.80 / aq-sensitivity=10.00 / aq-factor=1.00:1.00:1.00 / aq2=0 / aq3=0
    Language : English
    Default : Yes
    Forced : No
    Audio #1
    ID : 2
    Format : AC-3
    Format/Info : Audio Coding 3
    Mode extension : CM (complete main)
    Format settings, Endianness : Big
    Codec ID : A_AC3
    Duration : 2h 13mn
    Bit rate mode : Constant
    Bit rate : 448 Kbps
    Channel(s) : 6 channels
    Channel positions : Front: L C R, Side: L R, LFE
    Sampling rate : 48.0 KHz
    Compression mode : Lossy
    Stream size : 428 MiB (14%)
    Title : Dub, AC3 5.1 ~448 kbps
    Language : Russian
    Default : Yes
    Forced : No
    Audio #2
    ID : 3
    Format : AC-3
    Format/Info : Audio Coding 3
    Mode extension : CM (complete main)
    Format settings, Endianness : Big
    Codec ID : A_AC3
    Duration : 2h 13mn
    Bit rate mode : Constant
    Bit rate : 448 Kbps
    Channel(s) : 6 channels
    Channel positions : Front: L C R, Side: L R, LFE
    Sampling rate : 48.0 KHz
    Compression mode : Lossy
    Stream size : 428 MiB (14%)
    Title : Original, AC3 5.1 ~448 kbps
    Language : English
    Default : No
    Forced : No
    Text #1
    ID : 4
    Format : UTF-8
    Codec ID : S_TEXT/UTF8
    Codec ID/Info : UTF-8 Plain Text
    Language : Russian
    Default : No
    Forced : No
    Text #2
    ID : 5
    Format : UTF-8
    Codec ID : S_TEXT/UTF8
    Codec ID/Info : UTF-8 Plain Text
    Language : English
    Default : No
    Forced : No
    Menu
    00:00:00.000 : en:Chapter 01
    00:05:42.000 : en:Chapter 02
    00:08:22.000 : en:Chapter 03
    00:16:33.500 : en:Chapter 04
    00:19:22.500 : en:Chapter 05
    00:26:05.500 : en:Chapter 06
    00:35:50.000 : en:Chapter 07
    00:41:23.000 : en:Chapter 08
    00:44:09.000 : en:Chapter 09
    00:52:10.500 : en:Chapter 10
    00:55:59.500 : en:Chapter 11
    01:07:28.000 : en:Chapter 12
    01:09:09.500 : en:Chapter 13
    01:17:32.000 : en:Chapter 14
    01:24:09.500 : en:Chapter 15
    01:33:44.500 : en:Chapter 16
    01:43:12.500 : en:Chapter 17
    01:47:34.500 : en:Chapter 18
    01:59:16.000 : en:Chapter 19
    02:04:22.000 : en:Chapter 20

    x264

    x264 [info]: frame I:987 Avg QP:16.29 size: 83703
    x264 [info]: frame P:40396 Avg QP:18.04 size: 26235
    x264 [info]: frame B:150860 Avg QP:19.74 size: 7143
    x264 [info]: consecutive B-frames: 1.7% 1.9% 7.4% 18.8% 15.1% 44.3% 4.7% 1.0% 1.7% 0.4% 0.8% 0.7% 0.8% 0.7%
    x264 [info]: mb I I16..4: 4.4% 76.2% 19.4%
    x264 [info]: mb P I16..4: 1.3% 9.5% 1.6% P16..4: 40.4% 25.4% 15.9% 0.0% 0.0% skip: 5.9%
    x264 [info]: mb B I16..4: 0.2% 0.9% 0.2% B16..8: 36.0% 9.9% 2.8% direct: 6.2% skip:43.8% L0:41.8% L1:43.8% BI:14.4%
    x264 [info]: 8x8 transform intra:75.1% inter:59.9%
    x264 [info]: coded y,uvDC,uvAC intra: 73.4% 68.2% 40.4% inter: 20.5% 16.4% 1.8%
    x264 [info]: i16 v,h,dc,p: 51% 15% 9% 25%
    x264 [info]: i8 v,h,dc,ddl,ddr,vr,hd,vl,hu: 13% 9% 12% 8% 11% 12% 11% 11% 12%
    x264 [info]: i4 v,h,dc,ddl,ddr,vr,hd,vl,hu: 13% 7% 7% 9% 15% 14% 13% 11% 12%
    x264 [info]: i8c dc,h,v,p: 47% 23% 19% 10%
    x264 [info]: Weighted P-Frames: Y:5.1% UV:2.5%
    x264 [info]: ref P L0: 50.8% 12.5% 13.7% 5.5% 4.2% 3.3% 2.8% 1.7% 1.5% 1.3% 1.2% 1.3% 0.1% 0.0%
    x264 [info]: ref B L0: 75.6% 10.0% 5.1% 2.5% 1.9% 1.5% 1.3% 0.8% 0.7% 0.5% 0.2%
    x264 [info]: ref B L1: 94.1% 5.9%
    x264 [info]: kb/s:2217.19

    Скриншоты

    с названием

    ~~ Source ~~

    ~~ Rip ~~
    Скачать .torrent

    Скачать торрент-файл бесплатно и на максимальной скорости!

    Как скачивать? · Что такое торрент? · Рейтинг и ограничения

    !ВНИМАНИЕ!
    Сайт не распространяет и не хранит электронные версии произведений, а занимается лишь лишь предоставлением доступа к создаваемому пользователями каталогу ссылок на торрент-файлы, которые содержат только списки хеш-сумм, убедительная просьба с жалобами обращаться напрямую к пользователю. Файлы для обмена на трекере предоставлены пользователями сайта, и администрация не несёт ответственности за их содержание. Просьба не заливать файлы, защищенные авторскими правами, а также файлы нелегального содержания!


    _________________
    [Профиль] [ЛС]
    Показать сообщения:    
    Ответить на тему

    Текущее время: Сегодня, в 13:53

    Часовой пояс: GMT + 2



    Вы не можете начинать темы
    Вы не можете отвечать на сообщения
    Вы не можете редактировать свои сообщения
    Вы не можете удалять свои сообщения
    Вы не можете голосовать в опросах
    Вы не можете прикреплять файлы к сообщениям
    Вы не можете скачивать файлы