BitTorrentTracker PerecTracker.org
BitTorrentTracker PerecTracker.org
    
Регистрация  ·  Вход
 
 · 
Забыли пароль?

  • Страсть / Passion (Брайан Де Пальма / Brian De Palma) [2012, Германия, Франция, триллер, драма, криминал, детектив, HDRip] MVO

    Ответить на тему
     
    Автор Сообщение

    Light

    Создавать темы 03-Июл-2016 01:40

           

    [Цитировать]

    Страсть / Passion
    Слоган: «No backstabbing. Just business»
    Страна: Германия, Франция
    Жанр: триллер, драма, криминал, детектив
    Год выпуска: 2012
    Продолжительность: 01:41:03
    Перевод: Профессиональный (многоголосы закадровый)
    Cубтитры: нет
    Оригинальная аудиодорожка: нет
    Режиссер: Брайан Де Пальма / Brian De Palma
    В ролях: Рэйчел МакАдамс, Нуми Рапас, Каролина Херфурт, Пол Андерсон, Райнер Бок, Беньямин Задлер, Майкл Рочопф, Макс Урлахер, Доминик Рааке, Тристан В. Пюттер
    Описание: История двух девушек, топ-менеджеров крупной компании. Они крутили роман с одним и тем же сотрудником, причем обе одновременно уважают и ненавидят друг друга. В один прекрасный день одна сильно оскорбляет другую перед всеми коллегами… девушка решает отомстить.
    Сэмпл: http://multi-up.com/1108188
    Качество видео: HDRip
    Исходник: [Passion.2012.x264.BDRip.1080p.NovaLan]
    Формат видео: AVI
    Видео: 720x384 (1.88:1), 23.976 fps, XviD build 65 ~1865 kbps avg, 0.28 bit/pixel
    Audio: 48 kHz, AC3 Dolby Digital, 2/0 (L,R) Surround Encoded ch, ~192 kbps

    MediaInfo

    General
    Complete name : D:\Фильмы\Passion_2012_Toriyal_Rutracker.avi
    Format : AVI
    Format/Info : Audio Video Interleave
    File size : 1.46 GiB
    Duration : 1h 41mn
    Overall bit rate : 2 067 Kbps
    Writing application : VirtualDubMod 1.5.10.3 | www.virtualdub-fr.org || (build 2550/release)
    Writing library : VirtualDubMod build 2550/release
    Video
    ID : 0
    Format : MPEG-4 Visual
    Format profile : Advanced Simple@L5
    Format settings, BVOP : 1
    Format settings, QPel : No
    Format settings, GMC : No warppoints
    Format settings, Matrix : Custom
    Codec ID : XVID
    Codec ID/Hint : XviD
    Duration : 1h 41mn
    Bit rate : 1 866 Kbps
    Width : 720 pixels
    Height : 384 pixels
    Display aspect ratio : 1.85:1
    Frame rate : 23.976 (23976/1000) fps
    Color space : YUV
    Chroma subsampling : 4:2:0
    Bit depth : 8 bits
    Scan type : Progressive
    Compression mode : Lossy
    Bits/(Pixel*Frame) : 0.281
    Stream size : 1.32 GiB (90%)
    Writing library : XviD 65
    Audio
    ID : 1
    Format : AC-3
    Format/Info : Audio Coding 3
    Format profile : Dolby Digital
    Mode extension : CM (complete main)
    Format settings, Endianness : Big
    Codec ID : 2000
    Duration : 1h 41mn
    Bit rate mode : Constant
    Bit rate : 192 Kbps
    Channel(s) : 2 channels
    Channel positions : Front: L R
    Sampling rate : 48.0 KHz
    Frame rate : 31.250 fps (1536 spf)
    Compression mode : Lossy
    Stream size : 139 MiB (9%)
    Alignment : Split accross interleaves
    Interleave, duration : 42 ms (1.00 video frame)
    Interleave, preload duratio : 500 ms

    Скриншоты

    Скачать .torrent

    Скачать торрент-файл бесплатно и на максимальной скорости!

    Как скачивать? · Что такое торрент? · Рейтинг и ограничения

    !ВНИМАНИЕ!
    Сайт не распространяет и не хранит электронные версии произведений, а занимается лишь лишь предоставлением доступа к создаваемому пользователями каталогу ссылок на торрент-файлы, которые содержат только списки хеш-сумм, убедительная просьба с жалобами обращаться напрямую к пользователю. Файлы для обмена на трекере предоставлены пользователями сайта, и администрация не несёт ответственности за их содержание. Просьба не заливать файлы, защищенные авторскими правами, а также файлы нелегального содержания!


    _________________
    [Профиль] [ЛС]
    Показать сообщения:    
    Ответить на тему

    Текущее время: Сегодня, в 15:02

    Часовой пояс: GMT + 2



    Вы не можете начинать темы
    Вы не можете отвечать на сообщения
    Вы не можете редактировать свои сообщения
    Вы не можете удалять свои сообщения
    Вы не можете голосовать в опросах
    Вы не можете прикреплять файлы к сообщениям
    Вы не можете скачивать файлы