BitTorrentTracker PerecTracker.org
BitTorrentTracker PerecTracker.org
    
Регистрация  ·  Вход
 
 · 
Забыли пароль?

  • Восставшие мертвецы: конец игры / Dead Rising: Endgame (Пэт Уильямс / Pat Williams) [2016, США, Ужасы, WEBRip] VO (Хихикающий доктор)

    Ответить на тему
     
    Автор Сообщение

    rechyn

    Создавать темы 02-Июл-2016 21:28

           

    [Цитировать]

    Восставшие мертвецы: конец игры / Dead Rising: Endgame
    Страна: США
    Жанр: Ужасы
    Год выпуска: 2016
    Продолжительность: 01:32:56
    Перевод: Одноголосый закадровый Хихикающий доктор
    Cубтитры: нет
    Режиссер: Пэт Уильямс / Pat Williams
    В ролях: Джесси Меткалф, Кигэн Коннор Трэйси, Джессика Хэрмон, Деннис Хейсбёрт, Мари Авгеропулос, Тич Гран, Дакота Гуппи, Стефен Лобо, Кертис Льюм, Ли Мадждуб, Хезер Руп, Патрик Сабонгуй, Джим Шилд, Донаван Стинсон, Джим Торберн
    Описание: Журналист Чейз Картер снова выясняет интересные подробности о зомби-вирусе и правительстве.
    Сэмпл: http://sendfile.su/1246877
    Качество видео: WEBRip
    Формат видео: AVI
    Видео: 720x304 (2.37:1), 23.968 fps, XviD MPEG-4 ~1927 kbps avg, 0.37 bit/pixel
    Аудио: 44.100 kHz, MPEG Layer 3, 2 ch, ~192.00 kbps avg

    MediaInfo

    General
    Complete name : E:\Zona Downloads\Dead.Rising.Endgame.2016.Xixidok.avi
    Format : AVI
    Format/Info : Audio Video Interleave
    File size : 1.38 GiB
    Duration : 1h 32mn
    Overall bit rate : 2 128 Kbps
    Video
    ID : 0
    Format : MPEG-4 Visual
    Format profile : Advanced Simple@L5
    Format settings, BVOP : 2
    Format settings, QPel : No
    Format settings, GMC : No warppoints
    Format settings, Matrix : Default (H.263)
    Codec ID : XVID
    Codec ID/Hint : XviD
    Duration : 1h 32mn
    Bit rate : 1 927 Kbps
    Width : 720 pixels
    Height : 304 pixels
    Display aspect ratio : 2.35:1
    Frame rate : 23.976 fps
    Color space : YUV
    Chroma subsampling : 4:2:0
    Bit depth : 8 bits
    Scan type : Progressive
    Compression mode : Lossy
    Bits/(Pixel*Frame) : 0.367
    Stream size : 1.25 GiB (91%)
    Writing library : XviD 66
    Audio
    ID : 1
    Format : MPEG Audio
    Format version : Version 1
    Format profile : Layer 3
    Codec ID : 55
    Codec ID/Hint : MP3
    Duration : 1h 32mn
    Bit rate mode : Constant
    Bit rate : 192 Kbps
    Channel(s) : 2 channels
    Sampling rate : 44.1 KHz
    Compression mode : Lossy
    Stream size : 128 MiB (9%)
    Alignment : Split accross interleaves
    Interleave, duration : 42 ms (1.00 video frame)
    Interleave, preload duration : 500 ms

    Скриншот c названием фильма

    Скриншоты

    Скачать .torrent

    Скачать торрент-файл бесплатно и на максимальной скорости!

    Как скачивать? · Что такое торрент? · Рейтинг и ограничения

    !ВНИМАНИЕ!
    Сайт не распространяет и не хранит электронные версии произведений, а занимается лишь лишь предоставлением доступа к создаваемому пользователями каталогу ссылок на торрент-файлы, которые содержат только списки хеш-сумм, убедительная просьба с жалобами обращаться напрямую к пользователю. Файлы для обмена на трекере предоставлены пользователями сайта, и администрация не несёт ответственности за их содержание. Просьба не заливать файлы, защищенные авторскими правами, а также файлы нелегального содержания!


    _________________
    [Профиль] [ЛС]
    Показать сообщения:    
    Ответить на тему

    Текущее время: Сегодня, в 12:50

    Часовой пояс: GMT + 2



    Вы не можете начинать темы
    Вы не можете отвечать на сообщения
    Вы не можете редактировать свои сообщения
    Вы не можете удалять свои сообщения
    Вы не можете голосовать в опросах
    Вы не можете прикреплять файлы к сообщениям
    Вы не можете скачивать файлы