BitTorrentTracker PerecTracker.org
BitTorrentTracker PerecTracker.org
    
Регистрация  ·  Вход
 
 · 
Забыли пароль?

  • Жизнь других / The Lives of Others / Das Leben der Anderen (Флориан Хенкель фон Доннерсмарк / Florian Henckel von Donnersmarck) [2006, Германия, триллер, драма, BDRip 1080p] Dub + MVO + 2x AVO + DVO (Ukr) + Sub Rus, Ukr, Eng + Original Ger

    Ответить на тему
     
    Автор Сообщение

    Light

    Создавать темы 02-Июл-2016 17:16

           

    [Цитировать]

    Жизнь других / The Lives of Others / Das Leben der Anderen
    Страна: Германия
    Студия: Wiedemann & Berg Filmproduktion, Bayerischer Rundfunk (BR), Arte
    Жанр: триллер, драма
    Год выпуска: 2006
    Продолжительность: 02:17:36
    Перевод 1: Профессиональный (дублированный) Мосфильм Мастер
    Перевод 2: Профессиональный (многоголосый закадровый)
    Перевод 3: Авторский (одноголосый закадровый) Ю. Немахов
    Перевод 4: Авторский (одноголосый закадровый) А. Алексеев
    Cубтитры: русские, украинские, английские
    Оригинальная аудиодорожка: немецкий
    Режиссер: Флориан Хенкель фон Доннерсмарк / Florian Henckel von Donnersmarck
    В ролях: Ульрих Мюэ, Себастьян Кох, Мартина Гедек, Ульрих Тукур, Томас Тиме, Ханс-Уве Бауэр, Фолькмар Кляйнерт, Матиас Бреннер, Чарли Хюбнер, Херберт Кнауп
    Описание: Сто тысяч сотрудников, двести тысяч информаторов. Вместе они — щит и меч партии, знаменитое Штази. Их метод — подозрение. Жизнь других — их профессия.
    Популярный писатель и драматург Георг Драйман так бы и дожил до конца своих дней, обласканный вниманием благодарных читателей и абсолютно неинтересный для спецслужб, если бы не роман с известной театральной актрисой. Слишком известной, чтобы остаться незамеченной влиятельным чиновником из ЦК. Так в жизни Драймана появляются специалисты из Штази.- -Сэмпл: https://yadi.sk/i/bUJfcAtgswNex
    Тип релиза: BDRip 1080p [SbR]
    Контейнер: MKV
    Видео: h.264, 1920x808, 24.000 fps, 19100 kbps
    Аудио #1: Russian: DTS 5.1, 48 kHz/24-bit, 1536 kbps avg |Дубляж, Мосфильм Мастер|
    Аудио #2: Russian: AC3 2.0, 48 kHz, 224 kbps avg |Многоголосый закадровый|
    Аудио #3: Russian: DTS 5.1, 48 kHz/24-bit, 1536 kbps avg |Одноголосый закадровый, Ю. Немахов|
    Аудио #4: Russian: AC3 5.1, 48 kHz, 448 kbps avg |Одноголосый закадровый, А. Алексеев|
    Аудио #5: Ukrainian: AC3 2.0, 48 kHz, 192 kbps avg |Двухголосый закадровый, 1+1|
    Аудио #6: German: DTS 5.1, 48 kHz/16-bit, 1536 kbps avg |Оригинал|
    Аудио #7: English: AC3 2.0, 48 kHz, 192 kbps avg |Commentary|
    Формат субтитров: softsub (SRT)

    MediaInfo

    Complete name : E:\Das.Leben.der.Anderen.2006.1080p.BluRay.4xRus.Ukr.Ger.HDCLUB-SbR.mkv
    Format : Matroska
    Format version : Version 2
    File size : 24.2 GiB
    Duration : 2h 17mn
    Overall bit rate : 25.2 Mbps
    Movie name : Das Leben der Anderen (2006) - Encode by SbR
    Encoded date : UTC 2016-06-30 17:50:46
    Writing application : mkvmerge v9.2.0 ('Photograph') 64bit
    Writing library : libebml v1.3.3 + libmatroska v1.4.4
    Cover : Yes
    Attachments : cover.jpg / xlog.txt
    Video
    ID : 1
    Format : AVC
    Format/Info : Advanced Video Codec
    Format profile : High@L4.1
    Format settings, CABAC : Yes
    Format settings, ReFrames : 5 frames
    Codec ID : V_MPEG4/ISO/AVC
    Duration : 2h 17mn
    Bit rate : 19.1 Mbps
    Width : 1 920 pixels
    Height : 808 pixels
    Display aspect ratio : 2.40:1
    Frame rate mode : Constant
    Frame rate : 24.000 fps
    Color space : YUV
    Chroma subsampling : 4:2:0
    Bit depth : 8 bits
    Scan type : Progressive
    Bits/(Pixel*Frame) : 0.513
    Stream size : 18.4 GiB (76%)
    Writing library : x264 core 148 r2692kMod 64f4e24
    Encoding settings : cabac=1 / ref=5 / deblock=1:-2:-2 / analyse=0x3:0x133 / me=umh / subme=11 / psy=1 / fade_compensate=0.00 / psy_rd=1.00:0.00 / mixed_ref=1 / me_range=32 / chroma_me=1 / trellis=2 / 8x8dct=1 / cqm=0 / deadzone=21,11 / fast_pskip=1 / chroma_qp_offset=-2 / threads=12 / lookahead_threads=2 / sliced_threads=0 / nr=0 / decimate=1 / interlaced=0 / bluray_compat=0 / constrained_intra=0 / fgo=0 / bframes=8 / b_pyramid=2 / b_adapt=2 / b_bias=0 / direct=1 / weightb=1 / open_gop=0 / weightp=2 / keyint=250 / keyint_min=24 / scenecut=40 / intra_refresh=0 / rc_lookahead=60 / rc=crf / mbtree=0 / crf=17.2000 / qcomp=0.60 / qpmin=0 / qpmax=69 / qpstep=4 / vbv_maxrate=62500 / vbv_bufsize=78125 / crf_max=0.0 / nal_hrd=none / filler=0 / ip_ratio=1.40 / pb_ratio=1.30 / aq=1:0.80
    Language : German
    Default : Yes
    Forced : No
    Color range : Limited
    Color primaries : BT.709
    Transfer characteristics : BT.709
    Matrix coefficients : BT.709
    Audio #1
    ID : 2
    Format : DTS
    Format/Info : Digital Theater Systems
    Mode : 16
    Format settings, Endianness : Big
    Codec ID : A_DTS
    Duration : 2h 17mn
    Bit rate mode : Constant
    Bit rate : 1 510 Kbps
    Channel(s) : 6 channels
    Channel positions : Front: L C R, Side: L R, LFE
    Sampling rate : 48.0 KHz
    Frame rate : 93.750 fps (512 spf)
    Bit depth : 24 bits
    Compression mode : Lossy
    Stream size : 1.45 GiB (6%)
    Title : Дубляж
    Language : Russian
    Default : Yes
    Forced : No
    Audio #2
    ID : 3
    Format : AC-3
    Format/Info : Audio Coding 3
    Mode extension : CM (complete main)
    Format settings, Endianness : Big
    Codec ID : A_AC3
    Duration : 2h 17mn
    Bit rate mode : Constant
    Bit rate : 224 Kbps
    Channel(s) : 2 channels
    Channel positions : Front: L R
    Sampling rate : 48.0 KHz
    Frame rate : 31.250 fps (1536 spf)
    Compression mode : Lossy
    Stream size : 221 MiB (1%)
    Title : Многоголосый
    Language : Russian
    Default : No
    Forced : No
    Audio #3
    ID : 4
    Format : DTS
    Format/Info : Digital Theater Systems
    Mode : 16
    Format settings, Endianness : Big
    Codec ID : A_DTS
    Duration : 2h 17mn
    Bit rate mode : Constant
    Bit rate : 1 509 Kbps
    Channel(s) : 6 channels
    Channel positions : Front: L C R, Side: L R, LFE
    Sampling rate : 48.0 KHz
    Frame rate : 93.750 fps (512 spf)
    Bit depth : 24 bits
    Compression mode : Lossy
    Stream size : 1.45 GiB (6%)
    Title : Немахов
    Language : Russian
    Default : No
    Forced : No
    Audio #4
    ID : 5
    Format : AC-3
    Format/Info : Audio Coding 3
    Mode extension : CM (complete main)
    Format settings, Endianness : Big
    Codec ID : A_AC3
    Duration : 2h 17mn
    Bit rate mode : Constant
    Bit rate : 448 Kbps
    Channel(s) : 6 channels
    Channel positions : Front: L C R, Side: L R, LFE
    Sampling rate : 48.0 KHz
    Frame rate : 31.250 fps (1536 spf)
    Compression mode : Lossy
    Stream size : 441 MiB (2%)
    Title : Алексеев
    Language : Russian
    Default : No
    Forced : No
    Audio #5
    ID : 6
    Format : AC-3
    Format/Info : Audio Coding 3
    Mode extension : CM (complete main)
    Format settings, Endianness : Big
    Codec ID : A_AC3
    Duration : 2h 17mn
    Bit rate mode : Constant
    Bit rate : 192 Kbps
    Channel(s) : 2 channels
    Channel positions : Front: L R
    Sampling rate : 48.0 KHz
    Frame rate : 31.250 fps (1536 spf)
    Compression mode : Lossy
    Stream size : 189 MiB (1%)
    Title : Двухголосый, 1+1
    Language : Ukrainian
    Default : No
    Forced : No
    Audio #6
    ID : 7
    Format : DTS
    Format/Info : Digital Theater Systems
    Mode : 16
    Format settings, Endianness : Big
    Codec ID : A_DTS
    Duration : 2h 17mn
    Bit rate mode : Constant
    Bit rate : 1 509 Kbps
    Channel(s) : 6 channels
    Channel positions : Front: L C R, Side: L R, LFE
    Sampling rate : 48.0 KHz
    Frame rate : 93.750 fps (512 spf)
    Bit depth : 16 bits
    Compression mode : Lossy
    Stream size : 1.45 GiB (6%)
    Language : German
    Default : No
    Forced : No
    Audio #7
    ID : 8
    Format : AC-3
    Format/Info : Audio Coding 3
    Format profile : Dolby Digital
    Mode extension : CM (complete main)
    Format settings, Endianness : Big
    Codec ID : A_AC3
    Duration : 2h 17mn
    Bit rate mode : Constant
    Bit rate : 192 Kbps
    Channel(s) : 2 channels
    Channel positions : Front: L R
    Sampling rate : 48.0 KHz
    Frame rate : 31.250 fps (1536 spf)
    Compression mode : Lossy
    Stream size : 189 MiB (1%)
    Title : Commentary
    Language : English
    Default : No
    Forced : No
    Text #1
    ID : 9
    Format : UTF-8
    Codec ID : S_TEXT/UTF8
    Codec ID/Info : UTF-8 Plain Text
    Language : Russian
    Default : No
    Forced : No
    Text #2
    ID : 10
    Format : UTF-8
    Codec ID : S_TEXT/UTF8
    Codec ID/Info : UTF-8 Plain Text
    Language : Ukrainian
    Default : No
    Forced : No
    Text #3
    ID : 11
    Format : UTF-8
    Codec ID : S_TEXT/UTF8
    Codec ID/Info : UTF-8 Plain Text
    Language : English
    Default : No
    Forced : No
    Menu
    00:00:00.000 : en:Chapter 1
    00:06:50.000 : en:Chapter 2
    00:18:31.375 : en:Chapter 3
    00:40:00.583 : en:Chapter 4
    00:47:29.666 : en:Chapter 5
    01:01:52.791 : en:Chapter 6
    01:07:29.708 : en:Chapter 7
    01:20:55.333 : en:Chapter 8
    01:27:46.125 : en:Chapter 9
    01:43:57.583 : en:Chapter 10
    01:57:41.958 : en:Chapter 11
    02:03:10.083 : en:Chapter 12

    Source vs Encode




    Скриншоты

    Скачать .torrent

    Скачать торрент-файл бесплатно и на максимальной скорости!

    Как скачивать? · Что такое торрент? · Рейтинг и ограничения

    !ВНИМАНИЕ!
    Сайт не распространяет и не хранит электронные версии произведений, а занимается лишь лишь предоставлением доступа к создаваемому пользователями каталогу ссылок на торрент-файлы, которые содержат только списки хеш-сумм, убедительная просьба с жалобами обращаться напрямую к пользователю. Файлы для обмена на трекере предоставлены пользователями сайта, и администрация не несёт ответственности за их содержание. Просьба не заливать файлы, защищенные авторскими правами, а также файлы нелегального содержания!


    _________________
    [Профиль] [ЛС]
    Показать сообщения:    
    Ответить на тему

    Текущее время: Сегодня, в 03:04

    Часовой пояс: GMT + 2



    Вы не можете начинать темы
    Вы не можете отвечать на сообщения
    Вы не можете редактировать свои сообщения
    Вы не можете удалять свои сообщения
    Вы не можете голосовать в опросах
    Вы не можете прикреплять файлы к сообщениям
    Вы не можете скачивать файлы