BitTorrentTracker PerecTracker.org
BitTorrentTracker PerecTracker.org
    
Регистрация  ·  Вход
 
 · 
Забыли пароль?

  • Кочевник / Nomad / The warrior (Сергей Бодров, Иван Пассер / Ivan Passer, Талгат Теменов / Talgat Temenov) [2005, Казахстан, Россия, США, драма, военный, история, BDRip 720p] Dub (R5) + Original (Kaz) + Sub (Rus, Eng)

    Ответить на тему
     
    Автор Сообщение

    Light

    Создавать темы 02-Июл-2016 13:04

           

    [Цитировать]

    Кочевник / Nomad / The warrior«Каждый воин, каждый народ, каждая любовь - должны иметь свое отечество»-Страна: Казахстан, Россия, США
    Жанр: драма, военный, история
    Год выпуска: 2005
    Продолжительность: 01:51:23-Перевод: Профессиональный (полное дублирование) - R5
    Оригинальная аудиодорожка: Kazakh
    Cубтитры: Русские (полные), English (full)
    Навигация по главам: присутствует - 16 глав - подписанные-Режиссер: Сергей Бодров, Иван Пассер / Ivan Passer, Талгат Теменов / Talgat Temenov
    В ролях: Куно Беккер, Джей Эрнандес, Джейсон Скотт Ли, Досхан Жолжаксынов, Аянат Есмагамбетова, Марк Дакаскос, Ашир Чокубаев, Жанас Искаков, Тунгышбай Джаманкулов, Ерик Жолжаксынов, Дильназ Ахмадиева, Асылболат Исмагулов-Описание: История о казахском народе, о становлении государственного самосознания казахов еще в ХVIII веке.
    В основу фильма «Кочевник» легли реальные исторические события, происходившие на казахской земле в 18 веке — освободительная война казахов против джунгарских завоевателей. Героями фильма являются реальные исторические личности: хан Абулхаир, Аблай-хан, мудрый Толе би, предводитель джунгар Голдан Церен.
    Центральная фигура фильма — герой Мансур, ставший Аблай ханом, проходит все испытания подлинного народного полководца, но при этом не теряет притягательных личных черт, благодаря удачно выписанной лирической линии его любви к девушке — воину Гаухар.- -Качество видео: BDRip 720p | исх. BDRemux 1080p - thx: The next
    Формат: MKV-Видео: 1280x546 (2.35:1), 23.976 fps, H.264, 7561.43 kb/s, 0.440 bit/pixel
    Аудио №1: 48.0 kHz, DTS, 3/2 (L,C,R,l,r) + LFE ch, ~768 kbps | Профессиональный (полное дублирование) - R5
    Аудио №2: 48.0 kHz, AC3 Dolby Digital, 3/2 (L,C,R,l,r) + LFE ch, ~640 kbps | Kazakh
    Аудио №3: 48.0 kHz, AC3 Dolby Digital, 3/2 (L,C,R,l,r) + LFE ch, ~640 kbps | English
    Субтитры №1: Русские (полные) | *.srt
    Субтитры №2: English (full) | *.srt-

    MediaInfo

    General
    Unique ID : 203570700942671260865260491864255368900 (0x99264A76C0F8059AB034AB68CE360EC4)
    Complete name : D:\Фильмы\Рипы\Nomad.2005.BDRip 720p.eFK tRuAVC.mkv
    Format : Matroska
    Format version : Version 4 / Version 2
    File size : 7.48 GiB
    Duration : 1h 51mn
    Overall bit rate : 9 617 Kbps
    Movie name : Кочевник / Nomad / The warrior (2005) - Release for rutracker
    Encoded date : UTC 2016-07-01 08:28:43
    Writing application : mkvmerge v9.2.0 ('Photograph') 64bit
    Writing library : libebml v1.3.3 + libmatroska v1.4.4
    Attachements : cover.png
    DURATION : 01:51:22.400000000
    NUMBER_OF_FRAMES : 208825
    NUMBER_OF_BYTES : 534592000
    _STATISTICS_WRITING_APP : mkvmerge v9.2.0 ('Photograph') 64bit
    _STATISTICS_WRITING_DATE_UT : 2016-07-01 08:28:43
    _STATISTICS_TAGS : BPS DURATION NUMBER_OF_FRAMES NUMBER_OF_BYTES
    Video
    ID : 1
    Format : AVC
    Format/Info : Advanced Video Codec
    Format profile : High@L4.1
    Format settings, CABAC : Yes
    Format settings, ReFrames : 11 frames
    Codec ID : V_MPEG4/ISO/AVC
    Duration : 1h 51mn
    Bit rate : 7 377 Kbps
    Width : 1 280 pixels
    Height : 546 pixels
    Display aspect ratio : 2.35:1
    Frame rate mode : Constant
    Frame rate : 23.976 fps
    Color space : YUV
    Chroma subsampling : 4:2:0
    Bit depth : 8 bits
    Scan type : Progressive
    Bits/(Pixel*Frame) : 0.440
    Stream size : 5.74 GiB (77%)
    Title : eFK tRuAVC
    Writing library : x264 core 148 r2705kMod 3f5ed56
    Encoding settings : cabac=1 / ref=11 / deblock=1:-3:-3 / analyse=0x3:0x113 / me=umh / subme=11 / psy=1 / fade_compensate=0.00 / psy_rd=1.10:0.00 / mixed_ref=1 / me_range=48 / chroma_me=1 / trellis=2 / 8x8dct=1 / cqm=0 / deadzone=21,11 / fast_pskip=0 / chroma_qp_offset=-2 / threads=12 / lookahead_threads=3 / sliced_threads=0 / nr=0 / decimate=1 / interlaced=0 / bluray_compat=0 / constrained_intra=0 / fgo=0 / bframes=16 / b_pyramid=2 / b_adapt=2 / b_bias=0 / direct=3 / weightb=1 / open_gop=0 / weightp=2 / keyint=250 / keyint_min=23 / scenecut=40 / intra_refresh=0 / rc_lookahead=60 / rc=crf / mbtree=0 / crf=17.0000 / qcomp=0.70 / qpmin=0 / qpmax=69 / qpstep=4 / vbv_maxrate=62500 / vbv_bufsize=78125 / crf_max=0.0 / nal_hrd=none / filler=0 / ip_ratio=1.40 / pb_ratio=1.30 / aq=3:0.80
    Language : Kazakh
    Default : Yes
    Forced : No
    Color range : Limited
    Color primaries : BT.709
    Transfer characteristics : BT.709
    Matrix coefficients : BT.709
    DURATION : 01:51:23.302000000
    NUMBER_OF_FRAMES : 160239
    NUMBER_OF_BYTES : 6316915816
    _STATISTICS_WRITING_APP : mkvmerge v9.2.0 ('Photograph') 64bit
    _STATISTICS_WRITING_DATE_UT : 2016-07-01 08:28:43
    _STATISTICS_TAGS : BPS DURATION NUMBER_OF_FRAMES NUMBER_OF_BYTES
    Audio #1
    ID : 2
    Format : DTS
    Format/Info : Digital Theater Systems
    Mode : 16
    Format settings, Endianness : Big
    Codec ID : A_DTS
    Duration : 1h 51mn
    Bit rate mode : Constant
    Bit rate : 768 Kbps
    Channel(s) : 6 channels
    Channel positions : Front: L C R, Side: L R, LFE
    Sampling rate : 48.0 KHz
    Bit depth : 24 bits
    Compression mode : Lossy
    Stream size : 612 MiB (8%)
    Title : Профессиональный (полное дублирование) - R5
    Language : Russian
    Default : Yes
    Forced : No
    Audio #2
    ID : 3
    Format : AC-3
    Format/Info : Audio Coding 3
    Mode extension : CM (complete main)
    Format settings, Endianness : Big
    Codec ID : A_AC3
    Duration : 1h 51mn
    Bit rate mode : Constant
    Bit rate : 640 Kbps
    Channel(s) : 6 channels
    Channel positions : Front: L C R, Side: L R, LFE
    Sampling rate : 48.0 KHz
    Compression mode : Lossy
    Stream size : 510 MiB (7%)
    Language : Kazakh
    Default : No
    Forced : No
    Audio #3
    ID : 4
    Format : AC-3
    Format/Info : Audio Coding 3
    Mode extension : CM (complete main)
    Format settings, Endianness : Big
    Codec ID : A_AC3
    Duration : 1h 51mn
    Bit rate mode : Constant
    Bit rate : 640 Kbps
    Channel(s) : 6 channels
    Channel positions : Front: L C R, Side: L R, LFE
    Sampling rate : 48.0 KHz
    Compression mode : Lossy
    Stream size : 510 MiB (7%)
    Language : English
    Default : No
    Forced : No
    Text #1
    ID : 5
    Format : UTF-8
    Codec ID : S_TEXT/UTF8
    Codec ID/Info : UTF-8 Plain Text
    Title : (полные
    Language : Russian
    Default : No
    Forced : No
    Text #2
    ID : 6
    Format : UTF-8
    Codec ID : S_TEXT/UTF8
    Codec ID/Info : UTF-8 Plain Text
    Title : full
    Language : English
    Default : No
    Forced : No
    Menu
    00:00:00.000 : en:The Prophecy
    00:06:36.021 : en:Finest of the Herd
    00:13:36.315 : en:The Child Lives
    00:21:49.391 : en:Training Begins
    00:27:49.918 : en:Ten Years Later
    00:34:52.257 : en:A Curse on This Land
    00:41:33.908 : en:Preparing for Attack
    00:46:17.233 : en:A Duel
    00:53:50.269 : en:A New Leader
    00:59:01.788 : en:Captured
    01:08:51.294 : en:A Test
    01:15:12.842 : en:Brother Against Brother
    01:21:20.334 : en:Escape
    01:25:59.488 : en:Fight to the Death
    01:34:44.095 : en:The Tribes Unite
    01:39:34.552 : en:Epilogue/End Credits

    x264 log

    x264 [info]: frame I:982 Avg QP:16.22 size:133997
    x264 [info]: frame P:36967 Avg QP:18.07 size: 64143
    x264 [info]: frame B:122290 Avg QP:20.11 size: 31189
    x264 [info]: consecutive B-frames: 2.2% 3.6% 10.1% 24.6% 15.5% 36.9% 3.5% 0.9% 0.8% 0.5% 0.4% 0.3% 0.1% 0.2% 0.1% 0.1% 0.1%
    x264 [info]: mb I I16..4: 5.9% 79.3% 14.8%
    x264 [info]: mb P I16..4: 0.4% 29.6% 2.3% P16..4: 21.6% 27.2% 11.9% 0.0% 0.0% skip: 7.1%
    x264 [info]: mb B I16..4: 0.1% 6.5% 0.4% B16..8: 32.6% 22.9% 5.7% direct:10.0% skip:21.8% L0:44.2% L1:38.6% BI:17.2%
    x264 [info]: 8x8 transform intra:91.7% inter:59.2%
    x264 [info]: direct mvs spatial:100.0% temporal:0.0%
    x264 [info]: coded y,uvDC,uvAC intra: 95.2% 94.9% 82.0% inter: 51.6% 38.3% 10.4%
    x264 [info]: i16 v,h,dc,p: 50% 8% 7% 35%
    x264 [info]: i8 v,h,dc,ddl,ddr,vr,hd,vl,hu: 10% 8% 11% 10% 13% 12% 13% 11% 13%
    x264 [info]: i4 v,h,dc,ddl,ddr,vr,hd,vl,hu: 31% 5% 6% 7% 11% 11% 10% 9% 10%
    x264 [info]: i8c dc,h,v,p: 48% 23% 13% 16%
    x264 [info]: Weighted P-Frames: Y:8.4% UV:4.5%
    x264 [info]: ref P L0: 42.8% 14.8% 15.9% 6.2% 5.3% 3.7% 3.3% 1.8% 1.9% 1.5% 2.5% 0.2% 0.0%
    x264 [info]: ref B L0: 75.1% 10.2% 4.7% 2.6% 2.6% 1.6% 1.4% 0.8% 0.6% 0.3%
    x264 [info]: ref B L1: 95.5% 4.5%
    x264 [info]: kb/s:7561.43
    x264 [total]: encoded 160239 frames, 5.91 fps, 7561.43 kb/s, duration 7:31:55.31

    Screenshots

    Comparison

    Source

    Encode

    zim2001
    Цитата:

    • За русские субтитры большое спасибо NewDeaf.
    • За синхронизацию субтитров большое спасибо Gellard.
    Скачать .torrent

    Скачать торрент-файл бесплатно и на максимальной скорости!

    Как скачивать? · Что такое торрент? · Рейтинг и ограничения

    !ВНИМАНИЕ!
    Сайт не распространяет и не хранит электронные версии произведений, а занимается лишь лишь предоставлением доступа к создаваемому пользователями каталогу ссылок на торрент-файлы, которые содержат только списки хеш-сумм, убедительная просьба с жалобами обращаться напрямую к пользователю. Файлы для обмена на трекере предоставлены пользователями сайта, и администрация не несёт ответственности за их содержание. Просьба не заливать файлы, защищенные авторскими правами, а также файлы нелегального содержания!


    _________________
    [Профиль] [ЛС]
    Показать сообщения:    
    Ответить на тему

    Текущее время: Сегодня, в 14:09

    Часовой пояс: GMT + 2



    Вы не можете начинать темы
    Вы не можете отвечать на сообщения
    Вы не можете редактировать свои сообщения
    Вы не можете удалять свои сообщения
    Вы не можете голосовать в опросах
    Вы не можете прикреплять файлы к сообщениям
    Вы не можете скачивать файлы