BitTorrentTracker PerecTracker.org
BitTorrentTracker PerecTracker.org
    
Регистрация  ·  Вход
 
 · 
Забыли пароль?

  • Манхэттенский проект / The Manhattan Project (Маршалл Брикмен / Marshall Brickman) [1986, США, фантастика, триллер, BDRemux 1080p] MVO (SDI Media) + VO + Sub Eng + Original Eng

    Ответить на тему
     
    Автор Сообщение

    Light

    Создавать темы 02-Июл-2016 13:04

           

    [Цитировать]

    Манхэттенский проект / The Manhattan Project
    Страна: США
    Жанр: фантастика, триллер
    Год выпуска: 1986
    Продолжительность: 01:58:05
    Перевод 1: Профессиональный (многоголосый закадровый) SDI Media
    Перевод 2: Одноголосый закадровый
    Cубтитры: английские
    Оригинальная аудиодорожка: английский
    -
    Режиссер: Маршалл Брикмен / Marshall Brickman
    В ролях: Джон Литгоу, Ричард Консил, Роберт Шенккан, Пол Остин, Адриан Спаркс, Курт Демпстер, Брэн Феррен, Кристофер Коллет, Джилл Айкенберри, Синтия Никсон
    -
    Описание: Вундеркинд Пол Стивенс узнаёт, что новый приятель его матери работает в области разработок ядерного вооружения. Проникнув к нему в лабораторию, Пол крадёт некоторое количество плутония для личных нужд и вскоре создаёт собственную ядерную бомбу.

    Тип релиза: BDRemux 1080p
    Контейнер: MKV
    Видео: MPEG-4 AVC / NTSC 16:9 / 1920x1080 (1,85:1) / 21993 kbps / 23,976 fps / 0.442 bit/pixel / High@L4.1
    Аудио 1: Russian / Dolby Digital Audio / 2.0 Ch / 48 kHz / 192 kbps / 16 bit / DVO / SDI Media
    Аудио 2: Russian / Dolby Digital Audio / 2.0 Ch / 48 kHz / 192 kbps / 16 bit / VO
    Аудио 3: English / DTS-HD Master Audio / 2.0 Ch / 48 kHz / 1557 kbps / 16-bit (DTS Core: 2.0 Ch / 48 kHz / 1509 kbps / 16-bit) / Original
    Формат субтитров: softsub (SRT)
    Навигация по главам: есть

    MediaInfo

    Общее
    Уникальный идентификатор                 : 221189433851484342516308121741398974884 (0xA667891036E836BF8889BFB00AF921A4)
    Полное имя                               : N:\BDRemux 1080p\The Manhattan Project.1986.BDRemux.1080p.mkv
    Формат                                   : Matroska
    Версия формата                           : Version 4 / Version 2
    Размер файла                             : 19,7 Гбайт
    Продолжительность                        : 1 ч. 58 м.
    Режим общего битрейта                    : Переменный
    Общий поток                              : 23,9 Мбит/сек
    Название фильма                          : Release for RuTracker © flaSI-I
    Дата кодирования                         : UTC 2016-07-01 16:16:50
    Программа кодирования                    : mkvmerge v9.2.0 ('Photograph') 64bit
    Библиотека кодирования                   : libebml v1.3.3 + libmatroska v1.4.4
    Видео
    Идентификатор                            : 1
    Формат                                   : AVC
    Формат/Информация                        : Advanced Video Codec
    Профиль формата                          : High@L4.1
    Параметр CABAC формата                   : Да
    Параметр ReFrames формата                : 4 кадра
    Идентификатор кодека                     : V_MPEG4/ISO/AVC
    Продолжительность                        : 1 ч. 58 м.
    Вид битрейта                             : Переменный
    Битрейт                                  : 22,0 Мбит/сек
    Максимальный битрейт                     : 35,0 Мбит/сек
    Ширина                                   : 1920 пикселей
    Высота                                   : 1080 пикселей
    Соотношение сторон                       : 16:9
    Режим частоты кадров                     : Постоянный
    Частота кадров                           : 23,976 (24000/1001) кадра/сек
    Стандарт вещания                         : NTSC
    Цветовое пространство                    : YUV
    Субдискретизация насыщенности            : 4:2:0
    Битовая глубина                          : 8 бит
    Тип развёртки                            : Прогрессивная
    Бит/(Пиксели*Кадры)                      : 0.442
    Размер потока                            : 18,1 Гбайт (92%)
    Язык                                     : English
    Default                                  : Да
    Forced                                   : Нет
    Цветовой диапазон                        : Limited
    Основные цвета                           : BT.709
    Характеристики трансфера                 : BT.709
    Коэффициенты матрицы                     : BT.709
    Аудио #1
    Идентификатор                            : 2
    Формат                                   : AC-3
    Формат/Информация                        : Audio Coding 3
    Расширение режима                        : CM (complete main)
    Параметр Endianness формата              : Big
    Идентификатор кодека                     : A_AC3
    Продолжительность                        : 1 ч. 57 м.
    Вид битрейта                             : Постоянный
    Битрейт                                  : 192 Кбит/сек
    Каналы                                   : 2 канала
    Расположение каналов                     : Front: L R
    Частота                                  : 48,0 КГц
    Частота кадров                           : 31,250 кадров/сек (1536 spf)
    Метод сжатия                             : С потерями
    Размер потока                            : 162 Мбайт (1%)
    Заголовок                                : DVO / SDI Media
    Язык                                     : Russian
    Default                                  : Да
    Forced                                   : Нет
    Аудио #2
    Идентификатор                            : 3
    Формат                                   : AC-3
    Формат/Информация                        : Audio Coding 3
    Расширение режима                        : CM (complete main)
    Параметр Endianness формата              : Big
    Идентификатор кодека                     : A_AC3
    Продолжительность                        : 1 ч. 58 м.
    Вид битрейта                             : Постоянный
    Битрейт                                  : 192 Кбит/сек
    Каналы                                   : 2 канала
    Расположение каналов                     : Front: L R
    Частота                                  : 48,0 КГц
    Частота кадров                           : 31,250 кадров/сек (1536 spf)
    Метод сжатия                             : С потерями
    Размер потока                            : 162 Мбайт (1%)
    Заголовок                                : VO
    Язык                                     : Russian
    Default                                  : Нет
    Forced                                   : Нет
    Аудио #3
    Идентификатор                            : 4
    Формат                                   : DTS
    Формат/Информация                        : Digital Theater Systems
    Профиль формата                          : MA / Core
    Режим                                    : 16
    Параметр Endianness формата              : Big
    Идентификатор кодека                     : A_DTS
    Продолжительность                        : 1 ч. 58 м.
    Вид битрейта                             : Переменный / Постоянный
    Битрейт                                  : 1536 Кбит/сек / 1509 Кбит/сек
    Каналы                                   : 2 канала
    Расположение каналов                     : Front: L R
    Частота                                  : 48,0 КГц
    Частота кадров                           : 93,750 кадра/сек (512 spf)
    Битовая глубина                          : 16 бит
    Метод сжатия                             : Без потерь / Lossy
    Размер потока                            : 1,29 Гбайт (7%)
    Заголовок                                : Original
    Язык                                     : English
    Default                                  : Нет
    Forced                                   : Нет
    Текст
    Идентификатор                            : 5
    Формат                                   : UTF-8
    Идентификатор кодека                     : S_TEXT/UTF8
    Идентификатор кодека/Информация          : UTF-8 Plain Text
    Продолжительность                        : 1 ч. 53 м.
    Битрейт                                  : 50 бит/сек
    Count of elements                        : 1122
    Размер потока                            : 41,8 Кбайт (0%)
    Заголовок                                : Original
    Язык                                     : English
    Default                                  : Нет
    Forced                                   : Нет
    Меню
    00:00:00.000                             : en:00:00:00.000
    00:09:07.933                             : en:00:09:07.933
    00:22:24.521                             : en:00:22:24.521
    00:33:04.493                             : en:00:33:04.493
    00:52:26.654                             : en:00:52:26.654
    01:07:57.126                             : en:01:07:57.126
    01:23:08.494                             : en:01:23:08.494
    01:37:10.669                             : en:01:37:10.669

    Скриншоты

    Скачать .torrent

    Скачать торрент-файл бесплатно и на максимальной скорости!

    Как скачивать? · Что такое торрент? · Рейтинг и ограничения

    !ВНИМАНИЕ!
    Сайт не распространяет и не хранит электронные версии произведений, а занимается лишь лишь предоставлением доступа к создаваемому пользователями каталогу ссылок на торрент-файлы, которые содержат только списки хеш-сумм, убедительная просьба с жалобами обращаться напрямую к пользователю. Файлы для обмена на трекере предоставлены пользователями сайта, и администрация не несёт ответственности за их содержание. Просьба не заливать файлы, защищенные авторскими правами, а также файлы нелегального содержания!


    _________________
    [Профиль] [ЛС]
    Показать сообщения:    
    Ответить на тему

    Текущее время: Сегодня, в 14:25

    Часовой пояс: GMT + 2



    Вы не можете начинать темы
    Вы не можете отвечать на сообщения
    Вы не можете редактировать свои сообщения
    Вы не можете удалять свои сообщения
    Вы не можете голосовать в опросах
    Вы не можете прикреплять файлы к сообщениям
    Вы не можете скачивать файлы