BitTorrentTracker PerecTracker.org
BitTorrentTracker PerecTracker.org
    
Регистрация  ·  Вход
 
 · 
Забыли пароль?

  • Белоснежка и Охотник 2 / The Huntsman: Winter\'s War (Седрик Николя-Троян / Cedric Nicolas-Troyan) [2016, США, Фэнтези, боевик, драма, приключения, WEB-DLRip] Dub (iTunes) + Original + Sub (rus)

    Ответить на тему
     
    Автор Сообщение

    rechyn

    Создавать темы 02-Июл-2016 13:04

           

    [Цитировать]

    Белоснежка и Охотник 2 / The Huntsman: Winter's War
    Страна: США
    Жанр: фэнтези, боевик, драма, приключения
    Год выпуска: 2016
    Продолжительность: 01:53:57
    Перевод: Профессиональный (полное дублирование) (iTunes)
    Cубтитры: Русские (полные) (.srt)
    Оригинальная аудиодорожка: Английский
    Режиссер: Седрик Николя-Троян / Cedric Nicolas-Troyan
    В ролях: Крис Хемсворт, Шарлиз Терон, Джессика Честейн, Эмили Блант, Ник Фрост, Роб Брайдон, Шеридан Смит, Александра Роуч, Сопе Дирису, Сэм Хэзелдайн, Сэм Клафлин, Софи Куксон, Конрад Кхан, Ниам Уолтер, Нана Аджйеман-Бедьяко, Амелия Крауч, Фред Татаскьор, Ралф Айнесон, Линн Уилмот, Колин Морган
    Описание: Когда любовь уходит, сердце прекрасной девы обращается в лед. И даже сотни королевств не смогут сдержать поступь ее несметного воинства. Лишь Охотник не ведает страха. Сквозь проклятый лес он идет навстречу своей судьбе.
    Сэмпл: http://multi-up.com/1107884
    Качество видео: WEB-DLRip / WEBDL-1080p
    Формат видео: AVI
    Видео: 704x288 (2.44:1), 23.976 fps, XviD build 65 ~2166 kbps avg, 0.45 bit/pixel
    Audio #1: 48 kHz, AC3 Dolby Digital, 3/2 (L,C,R,l,r) + LFE ch, ~384 kbps - (iTunes)
    Audio #2: 48 kHz, AC3 Dolby Digital, 2/0 (L,R) ch, ~192 kbps - Original

    MediaInfo

    General
    Complete name : D:\Фильмы\The Huntsman Winter's War_2016_Toriyal_Rutracker\The Huntsman Winter's War_2016_Toriyal_Rutracker.avi
    Format : AVI
    Format/Info : Audio Video Interleave
    Format profile : OpenDML
    File size : 2.19 GiB
    Duration : 1h 53mn
    Overall bit rate : 2 749 Kbps
    Writing application : VirtualDubMod 1.5.10.2 (build 2540/release)
    Writing library : VirtualDubMod build 2540/release
    Video
    ID : 0
    Format : MPEG-4 Visual
    Format profile : Advanced Simple@L5
    Format settings, BVOP : 1
    Format settings, QPel : No
    Format settings, GMC : No warppoints
    Format settings, Matrix : Custom
    Codec ID : XVID
    Codec ID/Hint : XviD
    Duration : 1h 53mn
    Bit rate : 2 156 Kbps
    Width : 704 pixels
    Height : 288 pixels
    Display aspect ratio : 2.40:1
    Frame rate : 23.976 (23976/1000) fps
    Color space : YUV
    Chroma subsampling : 4:2:0
    Bit depth : 8 bits
    Scan type : Progressive
    Compression mode : Lossy
    Bits/(Pixel*Frame) : 0.443
    Stream size : 1.72 GiB (78%)
    Writing library : XviD 65
    Audio #1
    ID : 1
    Format : AC-3
    Format/Info : Audio Coding 3
    Mode extension : CM (complete main)
    Format settings, Endianness : Big
    Codec ID : 2000
    Duration : 1h 53mn
    Bit rate mode : Constant
    Bit rate : 384 Kbps
    Channel(s) : 6 channels
    Channel positions : Front: L C R, Side: L R, LFE
    Sampling rate : 48.0 KHz
    Frame rate : 31.250 fps (1536 spf)
    Compression mode : Lossy
    Stream size : 313 MiB (14%)
    Alignment : Split accross interleaves
    Interleave, duration : 42 ms (1.00 video frame)
    Interleave, preload duratio : 500 ms
    Audio #2
    ID : 2
    Format : AC-3
    Format/Info : Audio Coding 3
    Mode extension : CM (complete main)
    Format settings, Endianness : Big
    Codec ID : 2000
    Duration : 1h 53mn
    Bit rate mode : Constant
    Bit rate : 192 Kbps
    Channel(s) : 2 channels
    Channel positions : Front: L R
    Sampling rate : 48.0 KHz
    Frame rate : 31.250 fps (1536 spf)
    Compression mode : Lossy
    Stream size : 157 MiB (7%)
    Alignment : Split accross interleaves
    Interleave, duration : 42 ms (1.00 video frame)
    Interleave, preload duratio : 500 ms

    Скриншоты

    Скачать .torrent

    Скачать торрент-файл бесплатно и на максимальной скорости!

    Как скачивать? · Что такое торрент? · Рейтинг и ограничения

    !ВНИМАНИЕ!
    Сайт не распространяет и не хранит электронные версии произведений, а занимается лишь лишь предоставлением доступа к создаваемому пользователями каталогу ссылок на торрент-файлы, которые содержат только списки хеш-сумм, убедительная просьба с жалобами обращаться напрямую к пользователю. Файлы для обмена на трекере предоставлены пользователями сайта, и администрация не несёт ответственности за их содержание. Просьба не заливать файлы, защищенные авторскими правами, а также файлы нелегального содержания!


    _________________
    [Профиль] [ЛС]
    Показать сообщения:    
    Ответить на тему

    Текущее время: Сегодня, в 20:26

    Часовой пояс: GMT + 2



    Вы не можете начинать темы
    Вы не можете отвечать на сообщения
    Вы не можете редактировать свои сообщения
    Вы не можете удалять свои сообщения
    Вы не можете голосовать в опросах
    Вы не можете прикреплять файлы к сообщениям
    Вы не можете скачивать файлы