BitTorrentTracker PerecTracker.org
BitTorrentTracker PerecTracker.org
    
Регистрация  ·  Вход
 
 · 
Забыли пароль?

  • Молли Мун и волшебная книга гипноза / Molly Moon and the Incredible Book of Hypnotism (Кристофер Н. Роули / Christopher N. Rowley) [2015, Великобритания, семейный, DVDRip] VO (PiterVV)

    Ответить на тему
     
    Автор Сообщение

    Light

    Создавать темы 02-Июл-2016 13:04

           

    [Цитировать]

    Молли Мун и волшебная книга гипноза / Molly Moon and the Incredible Book of Hypnotism
    Страна: Великобритания
    Жанр: семейный
    Год выпуска: 2015
    Продолжительность: 01:37:42
    Перевод: Одноголосый закадровый PiterVV
    Cубтитры: нет
    Оригинальная аудиодорожка: нет
    Режиссер: Кристофер Н. Роули / Christopher N. Rowley
    В ролях: Рэффи Кэссиди, Эмили Уотсон, Доминик Монахэн, Джоан Коллинз, Селия Имри, Энн-Мэри Дафф, Сэди Фрост, Бен Миллер, Лесли Мэнвилл, Гари Кемп
    Описание: Молли Мун — сирота. Она живет в Хардвикском приюте, где властвует ужасная мисс Гадкинс. Злобная старуха всячески унижает и притесняет девочку, старшие ребята дразнят ее, учителя ругают за несобранность — в общем, жизнь маленькой Молли сложно назвать счастливой. Но однажды в руки Молли Мун попадает таинственная старинная книга по гипнозу, и жизнь девочки в одночасье меняется. Она обнаруживает в себе удивительную способность — заставлять людей делать все, что она пожелает. Вскоре мисс Гадкинс оказывается полностью в ее власти, и Молли замышляет побег из сиротского приюта. Она садится на самолет и улетает в Нью-Йорк, чтобы найти там своего лучшего друга Рокки, завоевать славу и богатство… Но за Молли по пятам следует зловещий незнакомец. Он знает секрет девочки и намерен использовать ее необычайные способности в своих гнусных целях…
    Сэмпл: http://multi-up.com/1108013
    Качество видео: DVDRip
    Формат видео: AVI
    Видео: XVID, 720X384 px, 1.85:1, 24 fps, 1 555 Kbps
    Аудио: MP3, 44.1 KHz, 192 Kbps, 2 channels, PiterVV

    MediaInfo

    General
    Complete name : \\SERVER\public\прекрасный мир\Molly.Moon.and.the.Incredible.Book.of.Hypnotism.PiterVV.avi
    Format : AVI
    Format/Info : Audio Video Interleave
    File size : 1.20 GiB
    Duration : 1h 37mn
    Overall bit rate : 1 756 Kbps
    Writing application : VirtualDubMod 1.5.10.2 (build 2540/release)
    Writing library : VirtualDubMod build 2540/release
    Video
    ID : 0
    Format : MPEG-4 Visual
    Format profile : Advanced Simple@L5
    Format settings, BVOP : 2
    Format settings, QPel : No
    Format settings, GMC : No warppoints
    Format settings, Matrix : Default (H.263)
    Muxing mode : Packed bitstream
    Codec ID : XVID
    Codec ID/Hint : XviD
    Duration : 1h 37mn
    Bit rate : 1 555 Kbps
    Width : 720 pixels
    Height : 384 pixels
    Display aspect ratio : 1.85:1
    Frame rate : 24.000 fps
    Color space : YUV
    Chroma subsampling : 4:2:0
    Bit depth : 8 bits
    Scan type : Progressive
    Compression mode : Lossy
    Bits/(Pixel*Frame) : 0.234
    Stream size : 1.06 GiB (89%)
    Writing library : XviD 66
    Audio
    ID : 1
    Format : MPEG Audio
    Format version : Version 1
    Format profile : Layer 3
    Mode : Joint stereo
    Mode extension : MS Stereo
    Codec ID : 55
    Codec ID/Hint : MP3
    Duration : 1h 37mn
    Bit rate mode : Constant
    Bit rate : 192 Kbps
    Channel(s) : 2 channels
    Sampling rate : 44.1 KHz
    Compression mode : Lossy
    Stream size : 134 MiB (11%)
    Alignment : Split accross interleaves
    Interleave, duration : 42 ms (1.00 video frame)
    Interleave, preload duration : 500 ms
    Writing library : LAME3.99.5

    Скриншот c названием фильма

    Скриншоты

    Скачать .torrent

    Скачать торрент-файл бесплатно и на максимальной скорости!

    Как скачивать? · Что такое торрент? · Рейтинг и ограничения

    !ВНИМАНИЕ!
    Сайт не распространяет и не хранит электронные версии произведений, а занимается лишь лишь предоставлением доступа к создаваемому пользователями каталогу ссылок на торрент-файлы, которые содержат только списки хеш-сумм, убедительная просьба с жалобами обращаться напрямую к пользователю. Файлы для обмена на трекере предоставлены пользователями сайта, и администрация не несёт ответственности за их содержание. Просьба не заливать файлы, защищенные авторскими правами, а также файлы нелегального содержания!


    _________________
    [Профиль] [ЛС]
    Показать сообщения:    
    Ответить на тему

    Текущее время: Сегодня, в 07:11

    Часовой пояс: GMT + 2



    Вы не можете начинать темы
    Вы не можете отвечать на сообщения
    Вы не можете редактировать свои сообщения
    Вы не можете удалять свои сообщения
    Вы не можете голосовать в опросах
    Вы не можете прикреплять файлы к сообщениям
    Вы не можете скачивать файлы