BitTorrentTracker PerecTracker.org
BitTorrentTracker PerecTracker.org
    
Регистрация  ·  Вход
 
 · 
Забыли пароль?

  • Бэтмен против Супермена: На заре справедливости / Batman v Superman: Dawn of Justice (Зак Снайдер / Zack Snyder) [2016, США, фантастика, боевик, приключения, WEB-DLRip-AVC] Dub + Original + Sub (rus)

    Ответить на тему
     
    Автор Сообщение

    rechyn

    Создавать темы 02-Июл-2016 04:40

           

    [Цитировать]

    Бэтмен против Супермена: На заре справедливости / Batman v Superman: Dawn of Justice«Who will win?»-Страна: США
    Жанр: фантастика, боевик, приключения
    Год выпуска: 2016
    Продолжительность: 02:31:38
    Перевод: Профессиональный (дублированный) (iTunes)
    Оригинальная аудиодорожка: английский
    Cубтитры: русские (форс., полные)
    Навигация по главам: есть
    Режиссер: Зак Снайдер / Zack Snyder
    В ролях: Генри Кавилл (Clark Kent / Superman), Бен Аффлек (Bruce Wayne / Batman), Галь Гадот (Diana Prince / Wonder Woman), Эми Адамс (Lois), Джесси Айзенберг (Lex Luthor), Джереми Айронс (Alfred), Дайан Лэйн (Martha Kent), Лоренс Фишбёрн (Perry White), Холли Хантер (Senator Finch), Скут МакНэри (Wallace Keefe), Каллэн Мулвей (Anatoli Knyazev), Тао Окамото (Mercy Graves)
    Описание: Опасаясь, что действия богоподобного супергероя так и останутся бесконтрольными, грозный и могущественный страж Готэм Сити бросает вызов самому почитаемому в наши дни спасителю Метрополиса, в то время как весь остальной мир решает, какой герой ему по-настоящему нужен. И пока Бэтмен и Супермен пребывают в состоянии войны друг с другом, возникает новая угроза, которая ставит человечество под самую большую опасность, с которой оно когда-либо сталкивалось.- -Качество: WEB-DLRip-AVC (исходник - WEB-DL 1080p)
    Формат видео: MKV
    Видео: x264, 1024x426 (2.40:1), 23,976 fps, ~1860 kbps, 0.178 bit/pixel
    Аудио 1: 48 kHz, AC3 Dolby Digital, 3/2 (L,C,R,l,r) + LFE ch, ~384 kbps [русский]
    Аудио 2: 48 kHz, AC3 Dolby Digital, 3/2 (L,C,R,l,r) + LFE ch, ~384 kbps [английский]
    Формат субтитров: softsub (SRT)-MediaInfo | x264 log
    Format : Matroska
    Format version : Version 4 / Version 2
    File size : 2.78 GiB
    Duration : 2h 31mn
    Overall bit rate : 2 629 Kbps
    Movie name : Бэтмен против Супермена: На заре справедливости / Batman v Superman: Dawn of Justice (2016) :: AFM ::
    Encoded date : UTC 2016-06-28 20:27:44
    Writing application : mkvmerge v8.3.0 ('Over the Horizon') 32bit
    Writing library : libebml v1.3.1 + libmatroska v1.4.2
    Video
    ID : 1
    Format : AVC
    Format/Info : Advanced Video Codec
    Format profile : High@L4.1
    Format settings, CABAC : Yes
    Format settings, ReFrames : 11 frames
    Codec ID : V_MPEG4/ISO/AVC
    Duration : 2h 31mn
    Bit rate : 1 860 Kbps
    Width : 1 024 pixels
    Height : 426 pixels
    Display aspect ratio : 2.40:1
    Frame rate mode : Constant
    Frame rate : 23.976 fps
    Color space : YUV
    Chroma subsampling : 4:2:0
    Bit depth : 8 bits
    Scan type : Progressive
    Bits/(Pixel*Frame) : 0.178
    Stream size : 1.92 GiB (69%)
    Title : WEBDLRip by AFM [RuTracker.org]
    Writing library : x264 core 148 r2705+54 9f484c1 t_mod_Custom [8-bit@all X86_64]
    Encoding settings : cabac=1 / ref=11 / deblock=1:-2:-2 / analyse=0x3:0x113 / me=umh / subme=10 / psy=1 / fade_compensate=0.00 / psy_rd=1.00:0.00 / mixed_ref=1 / me_range=32 / chroma_me=1 / trellis=2 / 8x8dct=1 / cqm=0 / deadzone=21,11 / fast_pskip=0 / chroma_qp_offset=-2 / threads=6 / lookahead_threads=1 / sliced_threads=0 / nr=0 / decimate=0 / interlaced=0 / bluray_compat=0 / constrained_intra=0 / fgo=0 / bframes=11 / b_pyramid=2 / b_adapt=2 / b_bias=0 / direct=3 / weightb=1 / open_gop=0 / weightp=2 / keyint=250 / keyint_min=23 / scenecut=40 / intra_refresh=0 / rc_lookahead=40 / rc=2pass / mbtree=0 / bitrate=1860 / ratetol=1.0 / qcomp=0.65 / qpmin=0:0:0 / qpmax=69:69:69 / qpstep=4 / cplxblur=20.0 / qblur=0.5 / vbv_maxrate=50000 / vbv_bufsize=62500 / nal_hrd=none / filler=0 / ip_ratio=1.25 / pb_ratio=1.20 / aq=1:0.90 / aq-sensitivity=10.00 / aq-factor=1.00:1.00:1.00 / aq2=0 / aq3=0 / zones=206920,218131,q=30
    Language : English
    Default : Yes
    Forced : No
    Audio #1
    ID : 2
    Format : AC-3
    Format/Info : Audio Coding 3
    Mode extension : CM (complete main)
    Format settings, Endianness : Big
    Codec ID : A_AC3
    Duration : 2h 31mn
    Bit rate mode : Constant
    Bit rate : 384 Kbps
    Channel(s) : 6 channels
    Channel positions : Front: L C R, Side: L R, LFE
    Sampling rate : 48.0 KHz
    Compression mode : Lossy
    Stream size : 416 MiB (15%)
    Title : Dub, AC3 5.1 ~384 kbps
    Language : Russian
    Default : Yes
    Forced : No
    Audio #2
    ID : 3
    Format : AC-3
    Format/Info : Audio Coding 3
    Mode extension : CM (complete main)
    Format settings, Endianness : Big
    Codec ID : A_AC3
    Duration : 2h 31mn
    Bit rate mode : Constant
    Bit rate : 384 Kbps
    Channel(s) : 6 channels
    Channel positions : Front: L C R, Side: L R, LFE
    Sampling rate : 48.0 KHz
    Compression mode : Lossy
    Stream size : 416 MiB (15%)
    Title : Original, AC3 5.1 ~384 kbps
    Language : English
    Default : No
    Forced : No
    Text #1
    ID : 4
    Format : UTF-8
    Codec ID : S_TEXT/UTF8
    Codec ID/Info : UTF-8 Plain Text
    Title : forced
    Language : Russian
    Default : Yes
    Forced : No
    Text #2
    ID : 5
    Format : UTF-8
    Codec ID : S_TEXT/UTF8
    Codec ID/Info : UTF-8 Plain Text
    Language : Russian
    Default : No
    Forced : No
    Menu
    00:00:00.000 : en:1
    00:09:48.000 : en:2
    00:20:45.000 : en:3
    00:29:58.000 : en:4
    00:38:46.000 : en:5
    00:49:25.000 : en:6
    00:59:21.000 : en:7
    01:10:06.000 : en:8
    01:21:14.000 : en:9
    01:30:00.000 : en:10
    01:38:20.000 : en:11
    01:49:57.000 : en:12
    02:01:48.000 : en:13
    02:10:40.000 : en:14
    02:18:41.000 : en:15
    02:23:50.000 : en:16

    x264

    x264 [info]: frame I:1518 Avg QP:16.43 size: 41269
    x264 [info]: frame P:64172 Avg QP:19.63 size: 16266
    x264 [info]: frame B:152441 Avg QP:20.05 size: 6611
    x264 [info]: consecutive B-frames: 5.0% 8.8% 9.2% 54.5% 9.3% 10.9% 1.0% 0.6% 0.2% 0.1% 0.1% 0.2%
    x264 [info]: mb I I16..4: 5.5% 74.7% 19.8%
    x264 [info]: mb P I16..4: 2.1% 13.3% 2.0% P16..4: 37.7% 24.7% 11.8% 0.0% 0.0% skip: 8.5%
    x264 [info]: mb B I16..4: 0.1% 1.2% 0.2% B16..8: 38.4% 13.9% 3.4% direct: 7.1% skip:35.7% L0:41.8% L1:44.8% BI:13.3%
    x264 [info]: 8x8 transform intra:76.4% inter:62.0%
    x264 [info]: direct mvs spatial:96.3% temporal:3.7%
    x264 [info]: coded y,uvDC,uvAC intra: 79.9% 72.1% 37.6% inter: 26.1% 16.5% 5.0%
    x264 [info]: i16 v,h,dc,p: 22% 17% 10% 50%
    x264 [info]: i8 v,h,dc,ddl,ddr,vr,hd,vl,hu: 11% 9% 7% 9% 13% 13% 13% 11% 14%
    x264 [info]: i4 v,h,dc,ddl,ddr,vr,hd,vl,hu: 11% 9% 4% 9% 14% 13% 14% 11% 14%
    x264 [info]: i8c dc,h,v,p: 38% 28% 18% 16%
    x264 [info]: Weighted P-Frames: Y:5.7% UV:3.7%
    x264 [info]: ref P L0: 49.8% 8.6% 16.9% 6.3% 5.1% 3.5% 3.1% 1.7% 1.7% 1.5% 1.5% 0.3% 0.0%
    x264 [info]: ref B L0: 77.1% 10.6% 4.7% 2.3% 1.6% 1.3% 1.0% 0.7% 0.5% 0.2%
    x264 [info]: ref B L1: 96.0% 4.0%
    x264 [info]: kb/s:1859.04

    Скриншоты

    с названием

    Скачать .torrent

    Скачать торрент-файл бесплатно и на максимальной скорости!

    Как скачивать? · Что такое торрент? · Рейтинг и ограничения

    !ВНИМАНИЕ!
    Сайт не распространяет и не хранит электронные версии произведений, а занимается лишь лишь предоставлением доступа к создаваемому пользователями каталогу ссылок на торрент-файлы, которые содержат только списки хеш-сумм, убедительная просьба с жалобами обращаться напрямую к пользователю. Файлы для обмена на трекере предоставлены пользователями сайта, и администрация не несёт ответственности за их содержание. Просьба не заливать файлы, защищенные авторскими правами, а также файлы нелегального содержания!


    _________________
    [Профиль] [ЛС]
    Показать сообщения:    
    Ответить на тему

    Текущее время: Сегодня, в 12:43

    Часовой пояс: GMT + 2



    Вы не можете начинать темы
    Вы не можете отвечать на сообщения
    Вы не можете редактировать свои сообщения
    Вы не можете удалять свои сообщения
    Вы не можете голосовать в опросах
    Вы не можете прикреплять файлы к сообщениям
    Вы не можете скачивать файлы