BitTorrentTracker PerecTracker.org
BitTorrentTracker PerecTracker.org
    
Регистрация  ·  Вход
 
 · 
Забыли пароль?

  • Рекомендации по уходу / Основные принципы добра / The fundamentals of caring (Роб Барнетт / Rob Burnett) [2016, США, комедия, мелодрама, DVDRip] DVO (LetEatBee & SashaMoroz)

    Ответить на тему
     
    Автор Сообщение

    rechyn

    Создавать темы 02-Июл-2016 04:40

           

    [Цитировать]

    Рекомендации по уходу / Основные принципы добра / The fundamentals of caring
    Страна: США
    Жанр: комедия, мелодрама
    Год выпуска: 2016
    Продолжительность: 01:33:27
    Озвучивание: Любительский (двухголосый закадровый) LetEatBee & SashaMoroz
    Перевод: Михаил Васильев
    Режиссер: Роб Барнетт / Rob Burnett
    В ролях: Крэйг Робертс, Пол Радд, Селена Гомес, Дженнифер Или, Меган Фергюсон
    Описание: Писатель, переживающий творческий и личностный кризис, устраивается работать сиделкой к юноше с редким генетическим заболеванием (которое, про должном уходе, не мешает ему вести вполне полноценную жизнь). Сначала они ненавидят друг друга, потом находят общий язык. А в итоге становятся лучшими друзьями и отправляются в путешествие по стране. В пути к ним присоединяется сбежавшая из дома девица. Для каждого эта поездка станет шагом на пути к познанию самого себя...
    Сэмпл: https://yadi.sk/i/l6PNRZ-Osw5zL
    Качество видео: DVDRip
    Формат видео: AVI
    Видео: 1557 Kbps, 720x304 (2.35:1), 23 976 fps, XviD
    Аудио: 448 Kbps, 48.0 KHz, 16 bits, 6 ch, AC 3

    MediaInfo

    Format : AVI
    Format/Info : Audio Video Interleave
    File size : 1.32 GiB
    Duration : 1h 33mn
    Overall bit rate : 2 015 Kbps
    Writing application : VirtualDubMod 1.5.10.3 (build 2550/release)
    Writing library : VirtualDubMod build 2550/release
    Video
    ID : 0
    Format : MPEG-4 Visual
    Format profile : Advanced Simple@L5
    Format settings, BVOP : 2
    Format settings, QPel : No
    Format settings, GMC : No warppoints
    Format settings, Matrix : Default (H.263)
    Codec ID : XVID
    Codec ID/Hint : XviD
    Duration : 1h 33mn
    Bit rate : 1 557 Kbps
    Width : 720 pixels
    Height : 304 pixels
    Display aspect ratio : 2.35:1
    Frame rate : 23.976 fps
    Color space : YUV
    Chroma subsampling : 4:2:0
    Bit depth : 8 bits
    Scan type : Progressive
    Compression mode : Lossy
    Bits/(Pixel*Frame) : 0.297
    Stream size : 1.02 GiB (77%)
    Writing library : XviD 66
    Audio
    ID : 1
    Format : AC-3
    Format/Info : Audio Coding 3
    Mode extension : CM (complete main)
    Format settings, Endianness : Big
    Codec ID : 2000
    Duration : 1h 33mn
    Bit rate mode : Constant
    Bit rate : 448 Kbps
    Channel(s) : 6 channels
    Channel positions : Front: L C R, Side: L R, LFE
    Sampling rate : 48.0 KHz
    Compression mode : Lossy
    Stream size : 299 MiB (22%)
    Alignment : Split accross interleaves
    Interleave, duration : 42 ms (1.00 video frame)
    Interleave, preload duratio : 500 ms

    Скриншот c названием фильма

    Скриншоты

    Скачать .torrent

    Скачать торрент-файл бесплатно и на максимальной скорости!

    Как скачивать? · Что такое торрент? · Рейтинг и ограничения

    !ВНИМАНИЕ!
    Сайт не распространяет и не хранит электронные версии произведений, а занимается лишь лишь предоставлением доступа к создаваемому пользователями каталогу ссылок на торрент-файлы, которые содержат только списки хеш-сумм, убедительная просьба с жалобами обращаться напрямую к пользователю. Файлы для обмена на трекере предоставлены пользователями сайта, и администрация не несёт ответственности за их содержание. Просьба не заливать файлы, защищенные авторскими правами, а также файлы нелегального содержания!


    _________________
    [Профиль] [ЛС]
    Показать сообщения:    
    Ответить на тему

    Текущее время: Сегодня, в 23:21

    Часовой пояс: GMT + 2



    Вы не можете начинать темы
    Вы не можете отвечать на сообщения
    Вы не можете редактировать свои сообщения
    Вы не можете удалять свои сообщения
    Вы не можете голосовать в опросах
    Вы не можете прикреплять файлы к сообщениям
    Вы не можете скачивать файлы