BitTorrentTracker PerecTracker.org
BitTorrentTracker PerecTracker.org
    
Регистрация  ·  Вход
 
 · 
Забыли пароль?

  • (Contemporary Jazz) [CD] Ambrose Akinmusire (feat. Walter Smith III, Sam Harris, Harish Raghavan, Justin Brown a.o.) - The Imagined Savior is Far Easier to Paint - 2014, FLAC (tracks+.cue), lossless

    Ответить на тему
     
    Автор Сообщение

    Columb

    Создавать темы 16-Мар-2014 09:10

           

    [Цитировать]

    ambrose akinmusire
    the
    imagined
    savior
    is
    far easier
    to paint
    Жанр: Contemporary Jazz
    Страна-производитель диска: USA
    Год издания: 2014
    Издатель (лейбл): Blue Note
    Аудиокодек: FLAC (*.flac)
    Тип рипа: tracks+.cue
    Битрейт аудио: lossless
    Продолжительность: 78:00
    Источник (релизер): спасибо popecat
    Наличие сканов в содержимом раздачи: нет
    Треклист:
    1. Marie Christie
    2. As We Fight (Willie Penrose)
    3. Our Basement (Ed)
    4. Vartha
    5. Memo (G. Learson)
    6. The Beauty Of Dissolving Portraits
    7. Asiam (Joan)
    8. Bubbles (John William Sublett)
    9. Ceaseless Inexhaustible Child (Cyntoia Brown)
    10. Rollcall For Those Absent
    11. J.E. Nilmah (Ecclesiastes 6:10)
    12. Inflatedbyspinning
    13. Richard (Conduit)

    Лог создания рипа

    X Lossless Decoder version 20131102 (145.0)
    XLD extraction logfile from 2014-03-15 16:17:36 -0400
    Ambrose Akinmusire / The Imagined Savior is Far Easier to Paint
    Used drive : TSSTcorp CDDVDW SE-218CB (revision MF00)Media type : Pressed CD
    Ripper mode : XLD Secure RipperDisable audio cache : OK for the drive with a cache less than 1375KiBMake use of C2 pointers : NORead offset correction : 6Max retry count : 20Gap status : Analyzed, Appended (except HTOA)
    TOC of the extracted CD Track | Start | Length | Start sector | End sector --------------------------------------------------------- 1 | 00:00:00 | 03:17:06 | 0 | 14780 2 | 03:17:06 | 06:25:24 | 14781 | 43679 3 | 09:42:30 | 06:28:54 | 43680 | 72833 4 | 16:11:09 | 07:48:69 | 72834 | 108002 5 | 24:00:03 | 05:53:16 | 108003 | 134493 6 | 29:53:19 | 04:14:01 | 134494 | 153544 7 | 34:07:20 | 06:03:48 | 153545 | 180817 8 | 40:10:68 | 03:55:07 | 180818 | 198449 9 | 44:06:00 | 06:12:12 | 198450 | 226361 10 | 50:18:12 | 03:39:04 | 226362 | 242790 11 | 53:57:16 | 05:13:42 | 242791 | 266307 12 | 59:10:58 | 03:03:39 | 266308 | 280071 13 | 62:14:22 | 16:28:31 | 280072 | 354202
    AccurateRip Summary Disc not found in AccurateRip DB.
    All Tracks Album gain : -7.14 dB Peak : 0.995392 Statistics Read error : 0 Jitter error (maybe fixed) : 0 Retry sector count : 0 Damaged sector count : 0
    Track 01 Filename : /Users/waltercano/Desktop/Ambrose Akinmusire - The Imagined Savior is Far Easier to Paint (2014) [FLAC]/01 Marie Christie.flac Pre-gap length : 00:02:00
    Track gain : 0.18 dB Peak : 0.774170 CRC32 hash (test run) : 482DF47D CRC32 hash : 482DF47D CRC32 hash (skip zero) : A48AE6F4 AccurateRip v1 signature : FED9465E AccurateRip v2 signature : 9ADE51B1 ->Track not present in AccurateRip database. Statistics Read error : 0 Jitter error (maybe fixed) : 0 Retry sector count : 0 Damaged sector count : 0
    Track 02 Filename : /Users/waltercano/Desktop/Ambrose Akinmusire - The Imagined Savior is Far Easier to Paint (2014) [FLAC]/02 As We Fight.flac Pre-gap length : 00:01:74
    Track gain : -6.58 dB Peak : 0.984314 CRC32 hash (test run) : BC264DBA CRC32 hash : BC264DBA CRC32 hash (skip zero) : 7C9983E9 AccurateRip v1 signature : 8DA1750C AccurateRip v2 signature : C1DA4E40 ->Track not present in AccurateRip database. Statistics Read error : 0 Jitter error (maybe fixed) : 0 Retry sector count : 0 Damaged sector count : 0
    Track 03 Filename : /Users/waltercano/Desktop/Ambrose Akinmusire - The Imagined Savior is Far Easier to Paint (2014) [FLAC]/03 Our Basement (Ed).flac Pre-gap length : 00:01:34
    Track gain : -5.89 dB Peak : 0.979034 CRC32 hash (test run) : D3B74839 CRC32 hash : D3B74839 CRC32 hash (skip zero) : 0751F8CC AccurateRip v1 signature : 36CAB9F6 AccurateRip v2 signature : 96C73906 ->Track not present in AccurateRip database. Statistics Read error : 0 Jitter error (maybe fixed) : 0 Retry sector count : 0 Damaged sector count : 0
    Track 04 Filename : /Users/waltercano/Desktop/Ambrose Akinmusire - The Imagined Savior is Far Easier to Paint (2014) [FLAC]/04 Vartha.flac Pre-gap length : 00:02:23
    Track gain : -9.18 dB Peak : 0.995392 CRC32 hash (test run) : D2832746 CRC32 hash : D2832746 CRC32 hash (skip zero) : D9003A46 AccurateRip v1 signature : B0E08971 AccurateRip v2 signature : 4A7C0B65 ->Track not present in AccurateRip database. Statistics Read error : 0 Jitter error (maybe fixed) : 0 Retry sector count : 0 Damaged sector count : 0
    Track 05 Filename : /Users/waltercano/Desktop/Ambrose Akinmusire - The Imagined Savior is Far Easier to Paint (2014) [FLAC]/05 Memo (G. Learson).flac Pre-gap length : 00:02:69
    Track gain : -6.46 dB Peak : 0.981873 CRC32 hash (test run) : 99DFDB08 CRC32 hash : 99DFDB08 CRC32 hash (skip zero) : 6BD23D0F AccurateRip v1 signature : 01C248A8 AccurateRip v2 signature : 9024325C ->Track not present in AccurateRip database. Statistics Read error : 0 Jitter error (maybe fixed) : 0 Retry sector count : 0 Damaged sector count : 0
    Track 06 Filename : /Users/waltercano/Desktop/Ambrose Akinmusire - The Imagined Savior is Far Easier to Paint (2014) [FLAC]/06 The Beauty of Dissolving Portraits.flac Pre-gap length : 00:02:74
    Track gain : -5.25 dB Peak : 0.977539 CRC32 hash (test run) : 23931256 CRC32 hash : 23931256 CRC32 hash (skip zero) : 048BB709 AccurateRip v1 signature : EF2CB173 AccurateRip v2 signature : 3B73D705 ->Track not present in AccurateRip database. Statistics Read error : 0 Jitter error (maybe fixed) : 0 Retry sector count : 0 Damaged sector count : 0
    Track 07 Filename : /Users/waltercano/Desktop/Ambrose Akinmusire - The Imagined Savior is Far Easier to Paint (2014) [FLAC]/07 Asiam (Joan).flac Pre-gap length : 00:01:29
    Track gain : -4.41 dB Peak : 0.980347 CRC32 hash (test run) : 1B34EDEA CRC32 hash : 1B34EDEA CRC32 hash (skip zero) : 66E5D330 AccurateRip v1 signature : 63D360F4 AccurateRip v2 signature : D2F6DBF4 ->Track not present in AccurateRip database. Statistics Read error : 0 Jitter error (maybe fixed) : 0 Retry sector count : 0 Damaged sector count : 0
    Track 08 Filename : /Users/waltercano/Desktop/Ambrose Akinmusire - The Imagined Savior is Far Easier to Paint (2014) [FLAC]/08 Bubbles (John William Sublett).flac Pre-gap length : 00:02:04
    Track gain : -7.28 dB Peak : 0.990479 CRC32 hash (test run) : 84C02376 CRC32 hash : 84C02376 CRC32 hash (skip zero) : 1F2C7C4B AccurateRip v1 signature : 6CE561AD AccurateRip v2 signature : 09B4CE80 ->Track not present in AccurateRip database. Statistics Read error : 0 Jitter error (maybe fixed) : 0 Retry sector count : 0 Damaged sector count : 0
    Track 09 Filename : /Users/waltercano/Desktop/Ambrose Akinmusire - The Imagined Savior is Far Easier to Paint (2014) [FLAC]/09 Ceaseless Inexhaustible Child (Cyntoia Brown).flac Pre-gap length : 00:02:59
    Track gain : -3.62 dB Peak : 0.979309 CRC32 hash (test run) : C1C004D9 CRC32 hash : C1C004D9 CRC32 hash (skip zero) : E5F8C14A AccurateRip v1 signature : F033A904 AccurateRip v2 signature : EFBFBF2B ->Track not present in AccurateRip database. Statistics Read error : 0 Jitter error (maybe fixed) : 0 Retry sector count : 0 Damaged sector count : 0
    Track 10 Filename : /Users/waltercano/Desktop/Ambrose Akinmusire - The Imagined Savior is Far Easier to Paint (2014) [FLAC]/10 Rollcall for Those Absent.flac Pre-gap length : 00:00:18
    Track gain : -8.35 dB Peak : 0.981079 CRC32 hash (test run) : 97A05DFF CRC32 hash : 97A05DFF CRC32 hash (skip zero) : 7ADB614A AccurateRip v1 signature : CF81124F AccurateRip v2 signature : 3CAD3B19 ->Track not present in AccurateRip database. Statistics Read error : 0 Jitter error (maybe fixed) : 0 Retry sector count : 0 Damaged sector count : 0
    Track 11 Filename : /Users/waltercano/Desktop/Ambrose Akinmusire - The Imagined Savior is Far Easier to Paint (2014) [FLAC]/11 J.E. Nilmah (Ecclesiastes 6:10).flac Pre-gap length : 00:00:49
    Track gain : -5.42 dB Peak : 0.982208 CRC32 hash (test run) : D9116BCF CRC32 hash : D9116BCF CRC32 hash (skip zero) : DA1F6A8A AccurateRip v1 signature : C38093DA AccurateRip v2 signature : 064C78D3 ->Track not present in AccurateRip database. Statistics Read error : 0 Jitter error (maybe fixed) : 0 Retry sector count : 0 Damaged sector count : 0
    Track 12 Filename : /Users/waltercano/Desktop/Ambrose Akinmusire - The Imagined Savior is Far Easier to Paint (2014) [FLAC]/12 Inflatedbyspinning.flac Pre-gap length : 00:02:09
    Track gain : -6.51 dB Peak : 0.978607 CRC32 hash (test run) : 089007D0 CRC32 hash : 089007D0 CRC32 hash (skip zero) : E5B16E7F AccurateRip v1 signature : 44662658 AccurateRip v2 signature : 0AB41665 ->Track not present in AccurateRip database. Statistics Read error : 0 Jitter error (maybe fixed) : 0 Retry sector count : 0 Damaged sector count : 0
    Track 13 Filename : /Users/waltercano/Desktop/Ambrose Akinmusire - The Imagined Savior is Far Easier to Paint (2014) [FLAC]/13 Richard (Conduit).flac Pre-gap length : 00:01:74
    Track gain : -5.65 dB Peak : 0.986359 CRC32 hash (test run) : 44DDDD5F CRC32 hash : 44DDDD5F CRC32 hash (skip zero) : 8679BC4E AccurateRip v1 signature : 1D4C88D7 AccurateRip v2 signature : 9E56396C ->Track not present in AccurateRip database. Statistics Read error : 0 Jitter error (maybe fixed) : 0 Retry sector count : 0 Damaged sector count : 0
    No errors occurred
    End of status report

    Содержание индексной карты (.CUE)

    TITLE "The Imagined Savior is Far Easier to Paint"PERFORMER "Ambrose Akinmusire"CATALOG 0602537635733REM GENRE "Jazz"REM DATE "2014"REM DISCID BE12720DREM REPLAYGAIN_ALBUM_GAIN -7.14 dBREM REPLAYGAIN_ALBUM_PEAK 0.995392FILE "01 Marie Christie.flac" WAVE TRACK 01 AUDIO TITLE "Marie Christie" ISRC USUM71319329 REM REPLAYGAIN_TRACK_GAIN 0.18 dB REM REPLAYGAIN_TRACK_PEAK 0.774170 INDEX 01 00:00:00 TRACK 02 AUDIO TITLE "As We Fight" ISRC USUM71319370 REM REPLAYGAIN_TRACK_GAIN -6.58 dB REM REPLAYGAIN_TRACK_PEAK 0.984314 INDEX 00 03:15:07FILE "02 As We Fight.flac" WAVE INDEX 01 00:00:00 TRACK 03 AUDIO TITLE "Our Basement (Ed)" ISRC USUM71319387 REM REPLAYGAIN_TRACK_GAIN -5.89 dB REM REPLAYGAIN_TRACK_PEAK 0.979034 INDEX 00 06:23:65FILE "03 Our Basement (Ed).flac" WAVE INDEX 01 00:00:00 TRACK 04 AUDIO TITLE "Vartha" ISRC USUM71319365 REM REPLAYGAIN_TRACK_GAIN -9.18 dB REM REPLAYGAIN_TRACK_PEAK 0.995392 INDEX 00 06:26:31FILE "04 Vartha.flac" WAVE INDEX 01 00:00:00 TRACK 05 AUDIO TITLE "Memo (G. Learson)" ISRC USUM71319367 REM REPLAYGAIN_TRACK_GAIN -6.46 dB REM REPLAYGAIN_TRACK_PEAK 0.981873 INDEX 00 07:46:00FILE "05 Memo (G. Learson).flac" WAVE INDEX 01 00:00:00 TRACK 06 AUDIO TITLE "The Beauty of Dissolving Portraits" ISRC USUM71319368 REM REPLAYGAIN_TRACK_GAIN -5.25 dB REM REPLAYGAIN_TRACK_PEAK 0.977539 INDEX 00 05:50:17FILE "06 The Beauty of Dissolving Portraits.flac" WAVE INDEX 01 00:00:00 TRACK 07 AUDIO TITLE "Asiam (Joan)" ISRC USUM71319369 REM REPLAYGAIN_TRACK_GAIN -4.41 dB REM REPLAYGAIN_TRACK_PEAK 0.980347 INDEX 00 04:12:47FILE "07 Asiam (Joan).flac" WAVE INDEX 01 00:00:00 TRACK 08 AUDIO TITLE "Bubbles (John William Sublett)" ISRC USUM71319371 REM REPLAYGAIN_TRACK_GAIN -7.28 dB REM REPLAYGAIN_TRACK_PEAK 0.990479 INDEX 00 06:01:44FILE "08 Bubbles (John William Sublett).flac" WAVE INDEX 01 00:00:00 TRACK 09 AUDIO TITLE "Ceaseless Inexhaustible Child (Cyntoia Brown)" ISRC USUM71319372 REM REPLAYGAIN_TRACK_GAIN -3.62 dB REM REPLAYGAIN_TRACK_PEAK 0.979309 INDEX 00 03:52:23FILE "09 Ceaseless Inexhaustible Child (Cyntoia Brown).flac" WAVE INDEX 01 00:00:00 TRACK 10 AUDIO TITLE "Rollcall for Those Absent" ISRC USUM71319373 REM REPLAYGAIN_TRACK_GAIN -8.35 dB REM REPLAYGAIN_TRACK_PEAK 0.981079 INDEX 00 06:11:69FILE "10 Rollcall for Those Absent.flac" WAVE INDEX 01 00:00:00 TRACK 11 AUDIO TITLE "J.E. Nilmah (Ecclesiastes 6:10)" ISRC USUM71319383 REM REPLAYGAIN_TRACK_GAIN -5.42 dB REM REPLAYGAIN_TRACK_PEAK 0.982208 INDEX 00 03:38:30FILE "11 J.E. Nilmah (Ecclesiastes 6:10).flac" WAVE INDEX 01 00:00:00 TRACK 12 AUDIO TITLE "Inflatedbyspinning" ISRC USUM71319385 REM REPLAYGAIN_TRACK_GAIN -6.51 dB REM REPLAYGAIN_TRACK_PEAK 0.978607 INDEX 00 05:11:33FILE "12 Inflatedbyspinning.flac" WAVE INDEX 01 00:00:00 TRACK 13 AUDIO TITLE "Richard (Conduit)" ISRC USUM71319386 REM REPLAYGAIN_TRACK_GAIN -5.65 dB REM REPLAYGAIN_TRACK_PEAK 0.986359 INDEX 00 03:01:40FILE "13 Richard (Conduit).flac" WAVE INDEX 01 00:00:00

    Об альбоме

    The title's prose speaks of trumpeter Ambrose Akinmusire's poetic leanings. A rising jazz star who's received a lion's share of awards and accolades yet is not resting on past laurels, he continues to search for artistic expression with in-demand chops and inventive writing that has illuminated the recordings of other artists and his own band since 2008's debut Prelude: to Cora (Fresh Sound New Talent).
    the imagined savior is far easier to paint is a fresh page in Akinmusire's evolving narrative, this time integrating progressive music with songs and lyrics contributed by a number of today's brightest vocalists. Becca Stevens provides abstract musings in "Our Basement" and Theo Bleckmann offers an affecting declaration of the heart in "Asiam" as Akinmusire's full bodied horn expresses a range of moods from blustery flights to animated screeches and slurs in the "Ceaseless Inexhaustable Child" with Cold Specks singer Al Spx articulating her unforgettable style of bittersweet lyrics.
    A stellar quintet that includes Akinmusire's longtime associate saxophonist Walter Smith III and guest guitarist Charles Altura}, the band is on top of its game, burning bright in complex yet melodic numbers such as "As We Fight" and "Bubbles" or swinging through turbulence in the episodic 16 minute live track "Richard." The release also unveils a gorgeous surprise in "The Beauty of Dissolving Portraits" which spotlights the trumpeter and the Osso String Quartet resulting in a piece that breathes multiple disciplines and highlights the trumpeter's writing acumen. "inflatedbyspinning" is another composition featuring string quartet and even though the trumpeter doesn't perform on the piece, it declares his prowess as a composer.
    Like his previous releases, Akinmusire's seeks to link themes and moods into a listening experience that move beyond the typecast set of up-tempo tracks and slower ballads. "Rollcall for Those Absent" is similar to "My Name is Oscar" from his 2011 Blue Note debut When the Heart Emerges Glistening as it provides social commentary, this time through a child's reading of the names of young people killed from gunfire(including Trayvon Martin) while Akinmusire quietly accompanies on keyboards. This is another significant release from one of music's brightest. (Mark F. Turner, AllAboutJazz)

    Состав

    Ambrose Akinmusire - trumpet
    Walter Smith III - tenor sax
    Sam Harris - piano, mellowtron
    Harish Raghavan - bass
    Justin Brown - drums
    Charles Altura - guitar (2, 4, 5, 8, 11)
    Becca Stevens - vocals (3)
    Maria Im - violin (3, 6, 12)
    Brooke Quiggens Saulnier - violin (3, 6, 12)
    Kallie Ciechomsky - viola (3, 6, 12)
    Maria Bella Jeffers - cello (3, 6, 12)
    Elena Penderhughes - flute (6)
    Theo Bleckmann - vocals + effects (7)
    Al Spx - vocals (9)
    Muna Blake - reading (10)
    Скачать .torrent

    Скачать торрент-файл бесплатно и на максимальной скорости!

    Как скачивать? · Что такое торрент? · Рейтинг и ограничения

    !ВНИМАНИЕ!
    Сайт не распространяет и не хранит электронные версии произведений, а занимается лишь лишь предоставлением доступа к создаваемому пользователями каталогу ссылок на торрент-файлы, которые содержат только списки хеш-сумм, убедительная просьба с жалобами обращаться напрямую к пользователю. Файлы для обмена на трекере предоставлены пользователями сайта, и администрация не несёт ответственности за их содержание. Просьба не заливать файлы, защищенные авторскими правами, а также файлы нелегального содержания!

    [Профиль] [ЛС]
    Показать сообщения:    
    Ответить на тему

    Текущее время: Сегодня, в 19:05

    Часовой пояс: GMT + 2



    Вы не можете начинать темы
    Вы не можете отвечать на сообщения
    Вы не можете редактировать свои сообщения
    Вы не можете удалять свои сообщения
    Вы не можете голосовать в опросах
    Вы не можете прикреплять файлы к сообщениям
    Вы не можете скачивать файлы