BitTorrentTracker PerecTracker.org
BitTorrentTracker PerecTracker.org
    
Регистрация  ·  Вход
 
 · 
Забыли пароль?

  • Слово / Вербо / Verbo (Эдуардо Чаперо-Джексон / Eduardo Chapero-Jackson) [2011, Испания, драма, фантастика, киберпанк, HDRip] MVO (Dena-Records) + Original Spa

    Ответить на тему
     
    Автор Сообщение

    Light

    Создавать темы 02-Июл-2016 04:40

           

    [Цитировать]

    Слово / Вербо / VerboСтрана: Испания
    Жанр: драма, фантастика, киберпанк
    Год выпуска: 2011
    Продолжительность: 01:24:13
    Перевод: Профессиональный (многоголосый закадровый) - Dena-Records
    Cубтитры: нет
    Оригинальная аудиодорожка: испанская
    Режиссер: Эдуардо Чаперо-Джексон / Eduardo Chapero-Jackson
    В ролях: Альба Гарсия, Мигель Анхель Сильвестре, Вероника Эчеги, Виктор Клавихо, Макарена Гомес, Адам Йезерски, Фернандо Сото, Мишель Асанте, Нассер Салех Ибрихим, Маноло Соло.
    Описание: Недалекое будущее. Люди живут в гигантских мегаполисах, почти не выбираясь с окраин в центр и не интересуясь практически ничем, что выходит за рамки их профессии. Однако бывают и исключения: пятнадцатилетняя Сара не может примириться с рутинной механистичностью окружающего мира. Поиски смысла приводят её к Лирико, автору странных будоражащих душу граффити, от которого она узнает, что её реальность — не единственная, а лишь одна из возможных. Так начинаются опасные приключения Сары в таинственном Зазеркалье. И ставка в этой новой игре - жизнь девушки…

    Доп. информация:
    Благодарность за исходник - BDRip (1080p) отсылается valera76 (Kinozal)
    Конвертация в HDRip - Arle-kino

    Качество видео: HDRip
    Формат видео: AVI
    Видео: 720x304 (2.37:1), 25 fps, XviD MPEG-4 ~1566 kbps avg, 0.29 bit/pixel
    Аудио 1: 48 kHz, AC3 Dolby Digital, 3/2 (L,C,R,l,r) + LFE ch, ~448 kbps - Rus
    Аудио 2: 48 kHz, AC3 Dolby Digital, 3/2 (L,C,R,l,r) + LFE ch, ~448 kbps - Esp

    MediaInfo

    General
    Complete name : D:\Public\Verbo\Verbo.2011.HDRip.Rus.Esp.avi
    Format : AVI
    Format/Info : Audio Video Interleave
    File size : 1.46 GiB
    Duration : 1h 24mn
    Overall bit rate : 2 477 Kbps
    Writing application : VirtualDubMod 1.5.10.2 (build 2540/release)
    Writing library : VirtualDubMod build 2540/release
    Video
    ID : 0
    Format : MPEG-4 Visual
    Format profile : Advanced Simple@L5
    Format settings, BVOP : 1
    Format settings, QPel : No
    Format settings, GMC : No warppoints
    Format settings, Matrix : Default (MPEG)
    Codec ID : XVID
    Codec ID/Hint : XviD
    Duration : 1h 24mn
    Bit rate : 1 568 Kbps
    Width : 720 pixels
    Height : 304 pixels
    Display aspect ratio : 2.35:1
    Frame rate : 25.000 fps
    Color space : YUV
    Chroma subsampling : 4:2:0
    Bit depth : 8 bits
    Scan type : Progressive
    Compression mode : Lossy
    Bits/(Pixel*Frame) : 0.287
    Stream size : 944 MiB (63%)
    Writing library : XviD 1.2.1 (UTC 2008-12-04)
    Audio #1
    ID : 1
    Format : AC-3
    Format/Info : Audio Coding 3
    Mode extension : CM (complete main)
    Codec ID : 2000
    Duration : 1h 24mn
    Bit rate mode : Constant
    Bit rate : 448 Kbps
    Channel(s) : 6 channels
    Channel positions : Front: L C R, Side: L R, LFE
    Sampling rate : 48.0 KHz
    Bit depth : 16 bits
    Compression mode : Lossy
    Stream size : 269 MiB (18%)
    Alignment : Split accross interleaves
    Interleave, duration : 40 ms (1.00 video frame)
    Interleave, preload duration : 500 ms
    Title : Rus
    Audio #2
    ID : 2
    Format : AC-3
    Format/Info : Audio Coding 3
    Mode extension : CM (complete main)
    Codec ID : 2000
    Duration : 1h 24mn
    Bit rate mode : Constant
    Bit rate : 448 Kbps
    Channel(s) : 6 channels
    Channel positions : Front: L C R, Side: L R, LFE
    Sampling rate : 48.0 KHz
    Bit depth : 16 bits
    Compression mode : Lossy
    Stream size : 269 MiB (18%)
    Alignment : Split accross interleaves
    Interleave, duration : 40 ms (1.00 video frame)
    Interleave, preload duration : 500 ms
    Title : Esp

    Скриншот c названием фильма

    Скриншоты

    Скачать .torrent

    Скачать торрент-файл бесплатно и на максимальной скорости!

    Как скачивать? · Что такое торрент? · Рейтинг и ограничения

    !ВНИМАНИЕ!
    Сайт не распространяет и не хранит электронные версии произведений, а занимается лишь лишь предоставлением доступа к создаваемому пользователями каталогу ссылок на торрент-файлы, которые содержат только списки хеш-сумм, убедительная просьба с жалобами обращаться напрямую к пользователю. Файлы для обмена на трекере предоставлены пользователями сайта, и администрация не несёт ответственности за их содержание. Просьба не заливать файлы, защищенные авторскими правами, а также файлы нелегального содержания!


    _________________
    [Профиль] [ЛС]
    Показать сообщения:    
    Ответить на тему

    Текущее время: Сегодня, в 00:26

    Часовой пояс: GMT + 2



    Вы не можете начинать темы
    Вы не можете отвечать на сообщения
    Вы не можете редактировать свои сообщения
    Вы не можете удалять свои сообщения
    Вы не можете голосовать в опросах
    Вы не можете прикреплять файлы к сообщениям
    Вы не можете скачивать файлы