BitTorrentTracker PerecTracker.org
BitTorrentTracker PerecTracker.org
    
Регистрация  ·  Вход
 
 · 
Забыли пароль?

  • Всевидящее око / Eye in the Sky (Гэвин Худ / Gavin Hood) [2015, Великобритания, триллер, драма, военный, BDRip] MVO

    Ответить на тему
     
    Автор Сообщение

    Light

    Создавать темы 02-Июл-2016 04:40

           

    [Цитировать]

    Всевидящее око / Eye in the Sky«The commander is in England. The drone pilot is in America. The terrorist is in Kenya. And the authority to strike is up in the air»-Страна: Великобритания
    Жанр: триллер, драма, военный
    Год выпуска: 2015
    Продолжительность: 01:42:45
    Перевод: Профессиональный (многоголосый, закадровый) (iTunes)
    Оригинальная аудиодорожка: нет
    Субтитры: русские (форс.)
    Режиссер: Гэвин Худ / Gavin Hood
    В ролях: Хелен Миррен (Colonel Katherine Powell), Файза Хассан (Fatima Mo'Allim), Аиша Такоу (Alia Mo'Allim),Армаан Хаггио (Musa Mo'Allim), Боб Чаппель (Simon Powell), Алекс Гафлавент (Reporter), Аарон Пол (Steve Watts), Бабу Сизей (Sergeant Mushtaq Saddiq), Карл Бьюкс (Sergeant Mike Gleeson), Кейт Ликориш (Female Sergeant), Ричард Стефенсон (Staff Sergeant), Габриэлла Пинто (Female Corporal)
    Описание: Война изменилась навсегда. Новые технологии дронов позволяют проникать в ранее недоступные места и предотвращать массовые террористические атаки. Но когда завершение операции становится таким же легким как нажатие одной кнопки, встает самый трудный вопрос. Погубит ли одно решение десятки мирных жителей или же спасет тысячи жизней?

    Качество: BDRip (исходник - BDRemux|Eye.in.the.Sky.2015.1080p.BluRay.REMUX.AVC.DTS-HD.MA.5.1-RARBG)
    Формат видео: AVI
    Видео: XviD, 720x304, 23,976 fps, ~1645 kbps, 0.313 bit/pixel
    Аудио: 48 kHz, AC3 Dolby Digital, 3/2 (L,C,R,l,r) + LFE ch, ~384 kbps
    Формат субтитров: softsub (SRT)

    MediaInfo

    Format : AVI
    Format/Info : Audio Video Interleave
    File size : 1.46 GiB
    Duration : 1h 42mn
    Overall bit rate : 2 038 Kbps
    Director : BDRip by AFM
    Writing application : VirtualDubMod 1.5.10.3 | www.virtualdub-fr.org || (build 2550/release)
    Writing library : VirtualDubMod build 2550/release
    Video
    ID : 0
    Format : MPEG-4 Visual
    Format profile : Advanced Simple@L5
    Format settings, BVOP : 1
    Format settings, QPel : No
    Format settings, GMC : No warppoints
    Format settings, Matrix : Custom
    Codec ID : XVID
    Codec ID/Hint : XviD
    Duration : 1h 42mn
    Bit rate : 1 645 Kbps
    Width : 720 pixels
    Height : 304 pixels
    Display aspect ratio : 2.35:1
    Frame rate : 23.976 fps
    Color space : YUV
    Chroma subsampling : 4:2:0
    Bit depth : 8 bits
    Scan type : Progressive
    Compression mode : Lossy
    Bits/(Pixel*Frame) : 0.313
    Stream size : 1.18 GiB (81%)
    Writing library : XviD 73
    Audio
    ID : 1
    Format : AC-3
    Format/Info : Audio Coding 3
    Mode extension : CM (complete main)
    Format settings, Endianness : Big
    Codec ID : 2000
    Duration : 1h 42mn
    Bit rate mode : Constant
    Bit rate : 384 Kbps
    Channel(s) : 6 channels
    Channel positions : Front: L C R, Side: L R, LFE
    Sampling rate : 48.0 KHz
    Compression mode : Lossy
    Stream size : 282 MiB (19%)
    Alignment : Split accross interleaves
    Interleave, duration : 42 ms (1.00 video frame)
    Interleave, preload duration : 500 ms

    Скриншоты

    с названием

    Скачать .torrent

    Скачать торрент-файл бесплатно и на максимальной скорости!

    Как скачивать? · Что такое торрент? · Рейтинг и ограничения

    !ВНИМАНИЕ!
    Сайт не распространяет и не хранит электронные версии произведений, а занимается лишь лишь предоставлением доступа к создаваемому пользователями каталогу ссылок на торрент-файлы, которые содержат только списки хеш-сумм, убедительная просьба с жалобами обращаться напрямую к пользователю. Файлы для обмена на трекере предоставлены пользователями сайта, и администрация не несёт ответственности за их содержание. Просьба не заливать файлы, защищенные авторскими правами, а также файлы нелегального содержания!


    _________________
    [Профиль] [ЛС]
    Показать сообщения:    
    Ответить на тему

    Текущее время: Сегодня, в 22:09

    Часовой пояс: GMT + 2



    Вы не можете начинать темы
    Вы не можете отвечать на сообщения
    Вы не можете редактировать свои сообщения
    Вы не можете удалять свои сообщения
    Вы не можете голосовать в опросах
    Вы не можете прикреплять файлы к сообщениям
    Вы не можете скачивать файлы