Register  ·  Log in
Forgot password?

  • Всевидящее око / Eye in the Sky (Гэвин Худ / Gavin Hood) [2015, Великобритания, триллер, драма, военный, BDRip] MVO

    Reply to topic
    Author Message


    Post 02-Jul-2016 05:40



    Всевидящее око / Eye in the Sky«The commander is in England. The drone pilot is in America. The terrorist is in Kenya. And the authority to strike is up in the air»-Страна: Великобритания
    Жанр: триллер, драма, военный
    Год выпуска: 2015
    Продолжительность: 01:42:45
    Перевод: Профессиональный (многоголосый, закадровый) (iTunes)
    Оригинальная аудиодорожка: нет
    Субтитры: русские (форс.)
    Режиссер: Гэвин Худ / Gavin Hood
    В ролях: Хелен Миррен (Colonel Katherine Powell), Файза Хассан (Fatima Mo'Allim), Аиша Такоу (Alia Mo'Allim),Армаан Хаггио (Musa Mo'Allim), Боб Чаппель (Simon Powell), Алекс Гафлавент (Reporter), Аарон Пол (Steve Watts), Бабу Сизей (Sergeant Mushtaq Saddiq), Карл Бьюкс (Sergeant Mike Gleeson), Кейт Ликориш (Female Sergeant), Ричард Стефенсон (Staff Sergeant), Габриэлла Пинто (Female Corporal)
    Описание: Война изменилась навсегда. Новые технологии дронов позволяют проникать в ранее недоступные места и предотвращать массовые террористические атаки. Но когда завершение операции становится таким же легким как нажатие одной кнопки, встает самый трудный вопрос. Погубит ли одно решение десятки мирных жителей или же спасет тысячи жизней?

    Качество: BDRip (исходник - BDRemux|
    Формат видео: AVI
    Видео: XviD, 720x304, 23,976 fps, ~1645 kbps, 0.313 bit/pixel
    Аудио: 48 kHz, AC3 Dolby Digital, 3/2 (L,C,R,l,r) + LFE ch, ~384 kbps
    Формат субтитров: softsub (SRT)


    Format : AVI
    Format/Info : Audio Video Interleave
    File size : 1.46 GiB
    Duration : 1h 42mn
    Overall bit rate : 2 038 Kbps
    Director : BDRip by AFM
    Writing application : VirtualDubMod | || (build 2550/release)
    Writing library : VirtualDubMod build 2550/release
    ID : 0
    Format : MPEG-4 Visual
    Format profile : Advanced Simple@L5
    Format settings, BVOP : 1
    Format settings, QPel : No
    Format settings, GMC : No warppoints
    Format settings, Matrix : Custom
    Codec ID : XVID
    Codec ID/Hint : XviD
    Duration : 1h 42mn
    Bit rate : 1 645 Kbps
    Width : 720 pixels
    Height : 304 pixels
    Display aspect ratio : 2.35:1
    Frame rate : 23.976 fps
    Color space : YUV
    Chroma subsampling : 4:2:0
    Bit depth : 8 bits
    Scan type : Progressive
    Compression mode : Lossy
    Bits/(Pixel*Frame) : 0.313
    Stream size : 1.18 GiB (81%)
    Writing library : XviD 73
    ID : 1
    Format : AC-3
    Format/Info : Audio Coding 3
    Mode extension : CM (complete main)
    Format settings, Endianness : Big
    Codec ID : 2000
    Duration : 1h 42mn
    Bit rate mode : Constant
    Bit rate : 384 Kbps
    Channel(s) : 6 channels
    Channel positions : Front: L C R, Side: L R, LFE
    Sampling rate : 48.0 KHz
    Compression mode : Lossy
    Stream size : 282 MiB (19%)
    Alignment : Split accross interleaves
    Interleave, duration : 42 ms (1.00 video frame)
    Interleave, preload duration : 500 ms


    с названием

    Download .torrent

    Download free and at maximum speed!

    How to Download? · What is a torrent? · Ratings and Limitations

    The site does not extend and does not store electronic(digital) versions of products, and only gives access to a reference catalogue created by users on torrent-files which contain only lists of the hash-sums, the earnest entreaty, with complaints(abuse) to access directly to the user. Files for an exchange on tracker are given by users of a site, and the administration does not bear the responsibility for their maintenance. The request to not fill in the files protected by copyrights, and also files of the illegal maintenance!

    [Profile] [PM]
    Display posts from previous:    
    Reply to topic

    The time now is: Today 14:15

    All times are GMT + 3 Hours

    You cannot post new topics in this forum
    You cannot reply to topics in this forum
    You cannot edit your posts in this forum
    You cannot delete your posts in this forum
    You cannot vote in polls in this forum
    You cannot attach files in this forum
    You cannot download files in this forum