BitTorrentTracker PerecTracker.org
BitTorrentTracker PerecTracker.org
    
Регистрация  ·  Вход
 
 · 
Забыли пароль?

  • Всевидящее око / Eye in the Sky (Гэвин Худ / Gavin Hood) [2015, Великобритания, триллер, драма, военный, BDRip-AVC] MVO + Sub (rus)

    Ответить на тему
     
    Автор Сообщение

    Light

    Создавать темы 02-Июл-2016 04:40

           

    [Цитировать]

    Всевидящее око / Eye in the Sky«The commander is in England. The drone pilot is in America. The terrorist is in Kenya. And the authority to strike is up in the air»-Страна: Великобритания
    Жанр: триллер, драма, военный
    Год выпуска: 2015
    Продолжительность: 01:42:45
    Перевод: Профессиональный (многоголосый, закадровый) (iTunes)
    Оригинальная аудиодорожка: нет
    Субтитры: русские (форс.)
    Навигация по главам: есть
    Режиссер: Гэвин Худ / Gavin Hood
    В ролях: Хелен Миррен (Colonel Katherine Powell), Файза Хассан (Fatima Mo'Allim), Аиша Такоу (Alia Mo'Allim),Армаан Хаггио (Musa Mo'Allim), Боб Чаппель (Simon Powell), Алекс Гафлавент (Reporter), Аарон Пол (Steve Watts), Бабу Сизей (Sergeant Mushtaq Saddiq), Карл Бьюкс (Sergeant Mike Gleeson), Кейт Ликориш (Female Sergeant), Ричард Стефенсон (Staff Sergeant), Габриэлла Пинто (Female Corporal)
    Описание: Война изменилась навсегда. Новые технологии дронов позволяют проникать в ранее недоступные места и предотвращать массовые террористические атаки. Но когда завершение операции становится таким же легким как нажатие одной кнопки, встает самый трудный вопрос. Погубит ли одно решение десятки мирных жителей или же спасет тысячи жизней?

    Качество: BDRip-AVC (исходник - BDRemux|Eye.in.the.Sky.2015.1080p.BluRay.REMUX.AVC.DTS-HD.MA.5.1-RARBG)
    Формат видео: MKV
    Видео: x264, 816x340 (2.40:1), 23,976 fps, ~820 kbps, 0.123 bit/pixel
    Аудио: 48 kHz, AC3 Dolby Digital, 2/0 (L,R) ch, ~192 kbps
    Формат субтитров: softsub (SRT)
    MediaInfo | x264 log
    Format : Matroska
    Format version : Version 4 / Version 2
    File size : 743 MiB
    Duration : 1h 42mn
    Overall bit rate : 1 010 Kbps
    Movie name : Всевидящее око / Eye in the Sky (2015) :: AFM ::
    Encoded date : UTC 2016-06-30 10:17:31
    Writing application : mkvmerge v8.3.0 ('Over the Horizon') 32bit
    Writing library : libebml v1.3.1 + libmatroska v1.4.2
    Video
    ID : 1
    Format : AVC
    Format/Info : Advanced Video Codec
    Format profile : High@L4.1
    Format settings, CABAC : Yes
    Format settings, ReFrames : 12 frames
    Codec ID : V_MPEG4/ISO/AVC
    Duration : 1h 42mn
    Bit rate : 820 Kbps
    Width : 816 pixels
    Height : 340 pixels
    Display aspect ratio : 2.40:1
    Frame rate mode : Constant
    Frame rate : 23.976 fps
    Color space : YUV
    Chroma subsampling : 4:2:0
    Bit depth : 8 bits
    Scan type : Progressive
    Bits/(Pixel*Frame) : 0.123
    Stream size : 587 MiB (79%)
    Title : BDRip by AFM [RuTracker.org]
    Writing library : x264 core 148 r2705+54 9f484c1 t_mod_Custom [8-bit@all X86_64]
    Encoding settings : cabac=1 / ref=12 / deblock=1:-2:-1 / analyse=0x3:0x113 / me=umh / subme=10 / psy=1 / fade_compensate=0.00 / psy_rd=1.00:0.00 / mixed_ref=1 / me_range=32 / chroma_me=1 / trellis=2 / 8x8dct=1 / cqm=0 / deadzone=21,11 / fast_pskip=0 / chroma_qp_offset=-2 / threads=6 / lookahead_threads=1 / sliced_threads=0 / nr=0 / decimate=0 / interlaced=0 / bluray_compat=0 / constrained_intra=0 / fgo=0 / bframes=15 / b_pyramid=2 / b_adapt=2 / b_bias=0 / direct=3 / weightb=1 / open_gop=0 / weightp=2 / keyint=250 / keyint_min=23 / scenecut=40 / intra_refresh=0 / rc_lookahead=40 / rc=2pass / mbtree=0 / bitrate=820 / ratetol=1.0 / qcomp=0.65 / qpmin=0:0:0 / qpmax=69:69:69 / qpstep=4 / cplxblur=20.0 / qblur=0.5 / vbv_maxrate=50000 / vbv_bufsize=62500 / nal_hrd=none / filler=0 / ip_ratio=1.30 / pb_ratio=1.25 / aq=1:0.90 / aq-sensitivity=10.00 / aq-factor=1.00:1.00:1.00 / aq2=0 / aq3=0
    Language : English
    Default : Yes
    Forced : No
    Audio
    ID : 2
    Format : AC-3
    Format/Info : Audio Coding 3
    Mode extension : CM (complete main)
    Format settings, Endianness : Big
    Codec ID : A_AC3
    Duration : 1h 42mn
    Bit rate mode : Constant
    Bit rate : 192 Kbps
    Channel(s) : 2 channels
    Channel positions : Front: L R
    Sampling rate : 48.0 KHz
    Compression mode : Lossy
    Stream size : 141 MiB (19%)
    Title : MVO, AC3 2.0 ~192 kbps
    Language : Russian
    Default : Yes
    Forced : No
    Text
    ID : 3
    Format : UTF-8
    Codec ID : S_TEXT/UTF8
    Codec ID/Info : UTF-8 Plain Text
    Title : forced
    Default : Yes
    Forced : No
    Menu
    00:00:00.000 : en:Chapter 1
    00:05:23.823 : en:Chapter 2
    00:10:50.149 : en:Chapter 3
    00:15:12.787 : en:Chapter 4
    00:19:07.355 : en:Chapter 5
    00:25:23.230 : en:Chapter 6
    00:30:22.320 : en:Chapter 7
    00:36:55.630 : en:Chapter 8
    00:41:49.590 : en:Chapter 9
    00:46:48.556 : en:Chapter 10
    00:50:25.147 : en:Chapter 11
    00:55:24.279 : en:Chapter 12
    00:59:34.905 : en:Chapter 13
    01:03:25.010 : en:Chapter 14
    01:10:24.262 : en:Chapter 15
    01:16:51.148 : en:Chapter 16
    01:21:32.304 : en:Chapter 17
    01:26:15.003 : en:Chapter 18
    01:30:03.398 : en:Chapter 19
    01:33:42.033 : en:Chapter 20

    x264

    x264 [info]: frame I:1256 Avg QP:15.43 size: 37562
    x264 [info]: frame P:31260 Avg QP:19.32 size: 9420
    x264 [info]: frame B:115298 Avg QP:20.27 size: 2497
    x264 [info]: consecutive B-frames: 2.3% 2.7% 7.6% 20.1% 19.7% 28.4% 6.0% 3.0% 2.1% 1.1% 1.0% 2.4% 0.8% 0.8% 0.6% 1.4%
    x264 [info]: mb I I16..4: 7.3% 67.3% 25.3%
    x264 [info]: mb P I16..4: 0.9% 5.6% 1.8% P16..4: 40.5% 25.4% 14.6% 0.0% 0.0% skip:11.2%
    x264 [info]: mb B I16..4: 0.1% 0.3% 0.2% B16..8: 34.5% 9.7% 2.5% direct: 3.2% skip:49.6% L0:44.9% L1:42.9% BI:12.1%
    x264 [info]: 8x8 transform intra:66.3% inter:57.3%
    x264 [info]: direct mvs spatial:95.7% temporal:4.3%
    x264 [info]: coded y,uvDC,uvAC intra: 76.5% 80.5% 57.4% inter: 12.9% 12.6% 6.3%
    x264 [info]: i16 v,h,dc,p: 32% 19% 6% 42%
    x264 [info]: i8 v,h,dc,ddl,ddr,vr,hd,vl,hu: 19% 10% 7% 7% 10% 12% 11% 11% 12%
    x264 [info]: i4 v,h,dc,ddl,ddr,vr,hd,vl,hu: 32% 8% 5% 7% 10% 10% 10% 8% 9%
    x264 [info]: i8c dc,h,v,p: 36% 26% 22% 16%
    x264 [info]: Weighted P-Frames: Y:4.7% UV:2.0%
    x264 [info]: ref P L0: 51.3% 11.3% 14.5% 5.5% 4.4% 3.3% 2.9% 1.6% 1.5% 1.2% 1.3% 1.2% 0.1% 0.0%
    x264 [info]: ref B L0: 67.4% 12.4% 6.9% 3.4% 2.6% 2.1% 1.8% 1.2% 1.2% 0.7% 0.3%
    x264 [info]: ref B L1: 92.8% 7.2%
    x264 [info]: kb/s:816.97

    Скриншоты

    с названием

    Скачать .torrent

    Скачать торрент-файл бесплатно и на максимальной скорости!

    Как скачивать? · Что такое торрент? · Рейтинг и ограничения

    !ВНИМАНИЕ!
    Сайт не распространяет и не хранит электронные версии произведений, а занимается лишь лишь предоставлением доступа к создаваемому пользователями каталогу ссылок на торрент-файлы, которые содержат только списки хеш-сумм, убедительная просьба с жалобами обращаться напрямую к пользователю. Файлы для обмена на трекере предоставлены пользователями сайта, и администрация не несёт ответственности за их содержание. Просьба не заливать файлы, защищенные авторскими правами, а также файлы нелегального содержания!


    _________________
    [Профиль] [ЛС]
    Показать сообщения:    
    Ответить на тему

    Текущее время: Сегодня, в 00:32

    Часовой пояс: GMT + 2



    Вы не можете начинать темы
    Вы не можете отвечать на сообщения
    Вы не можете редактировать свои сообщения
    Вы не можете удалять свои сообщения
    Вы не можете голосовать в опросах
    Вы не можете прикреплять файлы к сообщениям
    Вы не можете скачивать файлы