BitTorrentTracker PerecTracker.org
BitTorrentTracker PerecTracker.org
    
Регистрация  ·  Вход
 
 · 
Забыли пароль?

  • Сапожник / The Cobbler (Том МакКарти / Tom McCarthy) [2014, США, фэнтези, драма, комедия, BDRip-AVC] Dub (iTunes) + Sub Rus, Eng + Original Eng

    Ответить на тему
     
    Автор Сообщение

    Light

    Создавать темы 02-Июл-2016 00:32

           

    [Цитировать]

    Сапожник / The Cobbler«Live your life in someone else's shoes»-Страна: США
    Жанр: фэнтези, драма, комедия
    Год выпуска: 2014
    Продолжительность: 01:38:03-Перевод: Профессиональный (дублированный) iTunes
    Cубтитры: русские, английские
    Оригинальная аудиодорожка: английский-Режиссер: Том МакКарти / Tom McCarthy
    В ролях: Адам Сэндлер, Дэн Стивенс, Стив Бушеми, Дастин Хоффман, Эллен Баркин, Елена Кампурис, Гленн Флешлер, Метод Мэн, Мелони Диас, Джаред Сэндлер, Линн Коэн, Донни Кешаварц, Джои Злотник, Грета Ли, Юл Васкес, Кевин Брезнахан, Дэнни Мастроджорджо, Крэйг Уолкер, Гризз Чэпмен, Даша Поланко, Адам Б. Шапиро
    Описание: Макс Симкин занимается ремонтом обуви в Нью-Йорке. Он работает в магазине, который передавался его семьей из поколения в поколение. Однажды, разочарованный своей скучной жизнью, Макс натыкается на волшебную реликвию, которая позволяет ему увидеть мир по-новому.--Качество видео: BDRip-AVC [BDRemux / The.Cobbler.2014.BDremux.1080p]
    Формат видео: MKV
    Видео: AVC, 1152*620 (1.85:1), 3449 Kbps, 23.976 fps, 0.201 bit/pixel
    Аудио 1: AC-3, 48.0 KHz, 384 Kbps, 5.1 ch [Rus]
    Аудио 2: AC-3, 48.0 KHz, 448 Kbps, 5.1 ch [Eng]
    Формат субтитров: softsub (SRT)

    MediaInfo

    General
    Unique ID : 213389993138211259947245953624899390091 (0xA0896AF26F0FF65B8DDA081E41250A8B)
    Complete name : C:\Movie\Сапожник (The Cobbler) 2014.mkv
    Format : Matroska
    Format version : Version 4 / Version 2
    File size : 2.93 GiB
    Duration : 1h 38mn
    Overall bit rate : 4 278 Kbps
    Encoded date : UTC 2016-06-29 13:14:00
    Writing application : mkvmerge v9.2.0 ('Photograph') 32bit
    Writing library : libebml v1.3.3 + libmatroska v1.4.4
    Cover : Yes
    Attachments : cover.jpg
    Video
    ID : 1
    Format : AVC
    Format/Info : Advanced Video Codec
    Format profile : High@L4.1
    Format settings, CABAC : Yes
    Format settings, ReFrames : 8 frames
    Codec ID : V_MPEG4/ISO/AVC
    Duration : 1h 38mn
    Bit rate : 3 449 Kbps
    Width : 1 152 pixels
    Height : 620 pixels
    Display aspect ratio : 1.85:1
    Frame rate mode : Constant
    Frame rate : 23.976 (24000/1001) fps
    Color space : YUV
    Chroma subsampling : 4:2:0
    Bit depth : 8 bits
    Scan type : Progressive
    Bits/(Pixel*Frame) : 0.201
    Stream size : 2.36 GiB (81%)
    Writing library : x264 core 148 r2638 7599210
    Encoding settings : cabac=1 / ref=8 / deblock=1:-1:-1 / analyse=0x3:0x113 / me=hex / subme=9 / psy=1 / psy_rd=1.00:0.15 / mixed_ref=1 / me_range=16 / chroma_me=1 / trellis=1 / 8x8dct=1 / cqm=0 / deadzone=21,11 / fast_pskip=1 / chroma_qp_offset=-3 / threads=6 / lookahead_threads=1 / sliced_threads=0 / nr=0 / decimate=1 / interlaced=0 / bluray_compat=0 / constrained_intra=0 / bframes=8 / b_pyramid=2 / b_adapt=1 / b_bias=0 / direct=1 / weightb=1 / open_gop=0 / weightp=2 / keyint=240 / keyint_min=23 / scenecut=40 / intra_refresh=0 / rc_lookahead=40 / rc=2pass / mbtree=1 / bitrate=3449 / ratetol=1.0 / qcomp=0.60 / qpmin=0 / qpmax=69 / qpstep=4 / cplxblur=20.0 / qblur=0.5 / vbv_maxrate=62500 / vbv_bufsize=78125 / nal_hrd=none / filler=0 / ip_ratio=1.40 / aq=1:1.00
    Default : Yes
    Forced : No
    Audio #1
    ID : 2
    Format : AC-3
    Format/Info : Audio Coding 3
    Mode extension : CM (complete main)
    Format settings, Endianness : Big
    Codec ID : A_AC3
    Duration : 1h 38mn
    Bit rate mode : Constant
    Bit rate : 384 Kbps
    Channel(s) : 6 channels
    Channel positions : Front: L C R, Side: L R, LFE
    Sampling rate : 48.0 KHz
    Frame rate : 31.250 fps (1536 spf)
    Compression mode : Lossy
    Stream size : 269 MiB (9%)
    Title : Dub
    Language : Russian
    Default : Yes
    Forced : No
    Audio #2
    ID : 3
    Format : AC-3
    Format/Info : Audio Coding 3
    Mode extension : CM (complete main)
    Format settings, Endianness : Big
    Codec ID : A_AC3
    Duration : 1h 38mn
    Bit rate mode : Constant
    Bit rate : 448 Kbps
    Channel(s) : 6 channels
    Channel positions : Front: L C R, Side: L R, LFE
    Sampling rate : 48.0 KHz
    Frame rate : 31.250 fps (1536 spf)
    Compression mode : Lossy
    Stream size : 314 MiB (10%)
    Title : Original
    Language : English
    Default : No
    Forced : No
    Text #1
    ID : 4
    Format : UTF-8
    Codec ID : S_TEXT/UTF8
    Codec ID/Info : UTF-8 Plain Text
    Duration : 1h 32mn
    Bit rate : 82 bps
    Count of elements : 1263
    Stream size : 56.3 KiB (0%)
    Title : Full
    Language : Russian
    Default : No
    Forced : No
    Text #2
    ID : 5
    Format : UTF-8
    Codec ID : S_TEXT/UTF8
    Codec ID/Info : UTF-8 Plain Text
    Duration : 1h 26mn
    Bit rate : 71 bps
    Count of elements : 1244
    Stream size : 45.3 KiB (0%)
    Title : Full
    Language : English
    Default : No
    Forced : No
    Menu
    00:00:00.000 : en:00:00:00.000
    00:08:30.301 : en:00:08:30.301
    00:16:07.049 : en:00:16:07.049
    00:23:33.954 : en:00:23:33.954
    00:39:04.592 : en:00:39:04.592
    00:46:01.968 : en:00:46:01.968
    00:51:59.700 : en:00:51:59.700
    01:00:35.757 : en:01:00:35.757
    01:08:49.042 : en:01:08:49.042
    01:15:42.288 : en:01:15:42.288
    01:26:43.698 : en:01:26:43.698
    01:33:17.425 : en:01:33:17.425

    x264

    x264 [info]: frame I:1372 Avg QP:13.80 size:111901
    x264 [info]: frame P:61770 Avg QP:16.37 size: 29064
    x264 [info]: frame B:77924 Avg QP:18.86 size: 7496
    x264 [info]: consecutive B-frames: 15.8% 32.9% 11.5% 17.3% 19.4% 2.5% 0.1% 0.0% 0.5%
    x264 [info]: mb I I16..4: 12.5% 69.0% 18.5%
    x264 [info]: mb P I16..4: 1.6% 3.9% 0.8% P16..4: 39.9% 26.0% 15.6% 0.0% 0.0% skip:12.4%
    x264 [info]: mb B I16..4: 0.1% 0.2% 0.0% B16..8: 38.0% 7.9% 1.9% direct: 3.0% skip:48.8% L0:45.0% L1:43.3% BI:11.7%
    x264 [info]: 8x8 transform intra:63.6% inter:63.9%
    x264 [info]: coded y,uvDC,uvAC intra: 72.5% 79.5% 64.5% inter: 28.8% 24.8% 5.5%
    x264 [info]: i16 v,h,dc,p: 54% 15% 9% 21%
    x264 [info]: i8 v,h,dc,ddl,ddr,vr,hd,vl,hu: 10% 8% 11% 9% 13% 13% 12% 12% 12%
    x264 [info]: i4 v,h,dc,ddl,ddr,vr,hd,vl,hu: 11% 8% 6% 9% 14% 14% 13% 12% 13%
    x264 [info]: i8c dc,h,v,p: 49% 22% 18% 12%
    x264 [info]: Weighted P-Frames: Y:1.8% UV:0.5%
    x264 [info]: ref P L0: 46.8% 8.8% 19.4% 7.0% 6.3% 4.2% 4.4% 2.3% 0.8% 0.0%
    x264 [info]: ref B L0: 63.6% 19.2% 7.2% 4.3% 2.9% 2.2% 0.6%
    x264 [info]: ref B L1: 93.7% 6.3%
    x264 [info]: kb/s:3444.09

    Скриншоты

    -
    Скачать .torrent

    Скачать торрент-файл бесплатно и на максимальной скорости!

    Как скачивать? · Что такое торрент? · Рейтинг и ограничения

    !ВНИМАНИЕ!
    Сайт не распространяет и не хранит электронные версии произведений, а занимается лишь лишь предоставлением доступа к создаваемому пользователями каталогу ссылок на торрент-файлы, которые содержат только списки хеш-сумм, убедительная просьба с жалобами обращаться напрямую к пользователю. Файлы для обмена на трекере предоставлены пользователями сайта, и администрация не несёт ответственности за их содержание. Просьба не заливать файлы, защищенные авторскими правами, а также файлы нелегального содержания!


    _________________
    [Профиль] [ЛС]
    Показать сообщения:    
    Ответить на тему

    Текущее время: Сегодня, в 10:40

    Часовой пояс: GMT + 2



    Вы не можете начинать темы
    Вы не можете отвечать на сообщения
    Вы не можете редактировать свои сообщения
    Вы не можете удалять свои сообщения
    Вы не можете голосовать в опросах
    Вы не можете прикреплять файлы к сообщениям
    Вы не можете скачивать файлы