BitTorrentTracker PerecTracker.org
BitTorrentTracker PerecTracker.org
    
Регистрация  ·  Вход
 
 · 
Забыли пароль?

  • Костяной томагавк / Bone Tomahawk (С. Крэйг Залер / S. Craig Zahler) [2015, США, Ужасы, триллер, драма, приключения, вестерн, BDRip] AVO (Визгунов)

    Ответить на тему
     
    Автор Сообщение

    Light

    Создавать темы 02-Июл-2016 00:32

           

    [Цитировать]

    Костяной томагавк / Bone Tomahawk
    Страна: США
    Жанр: ужасы, триллер, драма, приключения, вестерн
    Год выпуска: 2015
    Продолжительность: 02:12:04
    Перевод: Авторский (одноголосый закадровый) (Визгунов)
    Cубтитры: нет
    Оригинальная аудиодорожка: нет
    Режиссер: С. Крэйг Залер / S. Craig Zahler
    В ролях: Курт Рассел (Sheriff Hunt), Патрик Уилсон (Arthur), Мэттью Фокс (Brooder), Ричард Дженкинс (Chicory), Лили Симмонс (Samantha), Эван Йоникит (Deputy Nick), Дэвид Аркетт (Purvis), Фред Меламед (Clarence), Сид Хэйг (Buddy), Маэстро Харрелл (Gizzard), Джеймс Толкан (Pianist), Кэтрин Моррис (Lorna Hunt)
    Описание: Четверо мужчин отправляются в отдаленные земли Дикого Запада, чтобы спасти группу пленных из пещер каннибалов.
    Сэмпл: http://multi-up.com/1107744
    Качество видео: BDRip / Видеоряд отсюда
    Формат видео: AVI
    Видео: 720x304 (2.37:1), 23.976 fps, XviD build 67 ~1375 kbps avg, 0.26 bit/pixel
    Аудио: 48 kHz, AC3 Dolby Digital, 2/0 (L,R) ch, ~224 kbps

    MediaInfo

    eneral
    Complete name : D:\Фильмы\Bone Tomahawk_2015_Rutracker.avi
    Format : AVI
    Format/Info : Audio Video Interleave
    File size : 1.48 GiB
    Duration : 2h 12mn
    Overall bit rate : 1 609 Kbps
    Writing application : VirtualDubMod 1.5.10.2 (build 2540/release)
    Writing library : VirtualDubMod build 2540/release
    Video
    ID : 0
    Format : MPEG-4 Visual
    Format profile : Advanced Simple@L5
    Format settings, BVOP : 1
    Format settings, QPel : No
    Format settings, GMC : No warppoints
    Format settings, Matrix : Custom
    Codec ID : XVID
    Codec ID/Hint : XviD
    Duration : 2h 12mn
    Bit rate : 1 375 Kbps
    Width : 720 pixels
    Height : 304 pixels
    Display aspect ratio : 2.35:1
    Frame rate : 23.976 (23976/1000) fps
    Color space : YUV
    Chroma subsampling : 4:2:0
    Bit depth : 8 bits
    Scan type : Progressive
    Compression mode : Lossy
    Bits/(Pixel*Frame) : 0.262
    Stream size : 1.27 GiB (85%)
    Writing library : XviD 67
    Audio
    ID : 1
    Format : AC-3
    Format/Info : Audio Coding 3
    Mode extension : CM (complete main)
    Format settings, Endianness : Big
    Codec ID : 2000
    Duration : 2h 12mn
    Bit rate mode : Constant
    Bit rate : 224 Kbps
    Channel(s) : 2 channels
    Channel positions : Front: L R
    Sampling rate : 48.0 KHz
    Frame rate : 31.250 fps (1536 spf)
    Compression mode : Lossy
    Stream size : 212 MiB (14%)
    Alignment : Split accross interleaves
    Interleave, duration : 42 ms (1.00 video frame)
    Interleave, preload duratio : 500 ms

    Скриншоты

    Скачать .torrent

    Скачать торрент-файл бесплатно и на максимальной скорости!

    Как скачивать? · Что такое торрент? · Рейтинг и ограничения

    !ВНИМАНИЕ!
    Сайт не распространяет и не хранит электронные версии произведений, а занимается лишь лишь предоставлением доступа к создаваемому пользователями каталогу ссылок на торрент-файлы, которые содержат только списки хеш-сумм, убедительная просьба с жалобами обращаться напрямую к пользователю. Файлы для обмена на трекере предоставлены пользователями сайта, и администрация не несёт ответственности за их содержание. Просьба не заливать файлы, защищенные авторскими правами, а также файлы нелегального содержания!


    _________________
    [Профиль] [ЛС]
    Показать сообщения:    
    Ответить на тему

    Текущее время: Сегодня, в 18:17

    Часовой пояс: GMT + 2



    Вы не можете начинать темы
    Вы не можете отвечать на сообщения
    Вы не можете редактировать свои сообщения
    Вы не можете удалять свои сообщения
    Вы не можете голосовать в опросах
    Вы не можете прикреплять файлы к сообщениям
    Вы не можете скачивать файлы