BitTorrentTracker PerecTracker.org
BitTorrentTracker PerecTracker.org
    
Регистрация  ·  Вход
 
 · 
Забыли пароль?

  • Мой друг Пьеро / Mon ami Pierrot (Орсо Мире / Orso Miret) [2011, Франция, драма, DVB] Original (Fre) + Sub (Rus, Eng, Fre, Deu)

    Ответить на тему
     
    Автор Сообщение

    Light

    Создавать темы 02-Июл-2016 00:32

           

    [Цитировать]

    Мой друг Пьеро
    Mon ami Pierrot-Страна: Франция
    Жанр: драма
    Год выпуска: 2011
    Продолжительность: 01:26:02Перевод: Субтитры (русский перевод К.Семенюк, Éclair Media)
    Cубтитры: русские, английские, французские, немецкие, нидерландские
    Оригинальная аудиодорожка: французский
    Режиссер: Орсо Мире / Orso Miret
    В ролях: Валантен Теншан / Valentin Tinchant (Pierrot), Оливье Рабурден / Olivier Rabourdin (Serge), Лиам Оноре / Liam Honore (Vincent), Арли Жове / Arly Jover (Cecilia), Янн Трегуэ / Yann Trégouët (Francis)
    Описание: Пьеро, тихий замкнутый 13-летний подросток, живет вдвоем с отцом, а собственную мать, умершую 10 лет назад совершенно не помнит. Однажды он становится невольным свидетелем публичного унижения своего отца. Это событие запускает неконтролируемую цепную реакцию, раскрывая хрупкость внутреннего мира подростков и возможные причины все чаще возникающей их беспричинной жестокости…
    Доп. информация: Hot Bird (13.0°E) TV5MONDE Europe DVB-S
    Участник Festival international des scénaristes de Valence 2012; FIPA - Festival International de Programmes Audiovisuel (Biarritz) 2012.

    Качество видео: DVB
    Формат видео: MKV
    Видео: MPEG Video 2, 720x576@1024x576 (16:9), 25 fps, ~2901 kbps avg, 0.280 bit/pixel
    Аудио: MPEG Audio 2, 2 ch, 48 kHz, 192 kbps - французский
    Формат субтитров: softsub (SRT)

    Пример субтитров

    100:00:46,027 --> 00:00:49,027Что там?
    200:00:51,010 --> 00:00:54,010Черт!
    300:00:55,454 --> 00:00:58,454В чем дело?
    400:00:59,421 --> 00:01:00,896Что такое?
    500:01:00,896 --> 00:01:03,896Это Пьеро.
    600:01:39,100 --> 00:01:42,100МОЙ ДРУГ ПЬЕРО
    700:02:12,698 --> 00:02:15,698Моей дорогой мамочке.
    800:02:44,138 --> 00:02:46,013Пьеро!
    900:02:46,013 --> 00:02:49,013-Как ты?-Нормально.
    1000:02:50,340 --> 00:02:53,340На кладбище работает 3 человека,а могилы неухоженные.
    1100:02:55,862 --> 00:02:58,862И чем они толькозанимаются?
    1200:03:12,334 --> 00:03:15,334Пойдем.
    1300:03:55,498 --> 00:03:58,498Привет, Серж!
    1400:04:00,816 --> 00:04:03,058Зайдем на минутку.
    1500:04:03,058 --> 00:04:05,173Мне нужно заниматься.
    1600:04:05,173 --> 00:04:08,173Я быстро.
    1700:04:15,735 --> 00:04:18,735Пойдем?
    1800:04:23,185 --> 00:04:26,096-Рад тебя видеть.-Я тоже.
    1900:04:26,096 --> 00:04:28,458Привет.
    2000:04:28,458 --> 00:04:31,458-Смотри.-Что это?

    MediaInfo

    GeneralUnique ID : 221248863281680898322581143183113447336 (0xA672FB291481E0D7BB1DA5F0EA25E7A8)Complete name : [apreder]Mon_ami_Pierrot(2011)DVB.mkvFormat : MatroskaFormat version : Version 2File size : 1.90 GiBDuration : 1 h 26 minOverall bit rate : 3 156 kb/sMovie name : Mon ami PierrotReleased date : 2011-00-00Encoded date : UTC 2016-07-01 15:16:21Writing application : mkvmerge v9.2.0 ('Photograph') 64bitWriting library : libebml v1.3.3 + libmatroska v1.4.4Cover : YesAttachments : cover.png / small cover.pngACTOR : Valentin Tinchant, Olivier RabourdinDIRECTOR : Orso MiretGENRE : DramaIMDB : tt2071529KEYWORDS : perectracker.orgLAW_RATING : 18+
    VideoID : 1Format : MPEG VideoFormat version : Version 2Format profile : Main@MainFormat settings, BVOP : YesFormat settings, Matrix : CustomFormat settings, GOP : VariableFormat settings, picture structure : FrameCodec ID : V_MPEG2Codec ID/Info : MPEG 1 or 2 VideoDuration : 1 h 26 minBit rate : 2 901 kb/sMaximum bit rate : 3 200 kb/sWidth : 720 pixelsHeight : 576 pixelsDisplay aspect ratio : 16:9Frame rate mode : ConstantFrame rate : 25.000 FPSStandard : PALColor space : YUVChroma subsampling : 4:2:0Bit depth : 8 bitsScan type : InterlacedScan order : Top Field FirstCompression mode : LossyBits/(Pixel*Frame) : 0.280Stream size : 1.74 GiB (92%)Default : YesForced : No
    AudioID : 2Format : MPEG AudioFormat version : Version 1Format profile : Layer 2Mode : Joint stereoMode extension : Intensity Stereo + MS StereoCodec ID : A_MPEG/L2Codec ID/Hint : MP2Duration : 1 h 26 minBit rate mode : ConstantBit rate : 192 kb/sChannel(s) : 2 channelsSampling rate : 48.0 kHzCompression mode : LossyStream size : 118 MiB (6%)Language : FrenchDefault : YesForced : No
    Text #1ID : 3Format : UTF-8Codec ID : S_TEXT/UTF8Codec ID/Info : UTF-8 Plain TextLanguage : RussianDefault : NoForced : No
    Text #2ID : 4Format : UTF-8Codec ID : S_TEXT/UTF8Codec ID/Info : UTF-8 Plain TextLanguage : EnglishDefault : NoForced : No
    Text #3ID : 5Format : UTF-8Codec ID : S_TEXT/UTF8Codec ID/Info : UTF-8 Plain TextLanguage : FrenchDefault : NoForced : No
    Text #4ID : 6Format : UTF-8Codec ID : S_TEXT/UTF8Codec ID/Info : UTF-8 Plain TextLanguage : GermanDefault : NoForced : No
    Text #5ID : 7Format : UTF-8Codec ID : S_TEXT/UTF8Codec ID/Info : UTF-8 Plain TextLanguage : DutchDefault : NoForced : No

    Скриншот c названием фильма

    Скриншоты


    Резервные скриншоты


    Скачать .torrent

    Скачать торрент-файл бесплатно и на максимальной скорости!

    Как скачивать? · Что такое торрент? · Рейтинг и ограничения

    !ВНИМАНИЕ!
    Сайт не распространяет и не хранит электронные версии произведений, а занимается лишь лишь предоставлением доступа к создаваемому пользователями каталогу ссылок на торрент-файлы, которые содержат только списки хеш-сумм, убедительная просьба с жалобами обращаться напрямую к пользователю. Файлы для обмена на трекере предоставлены пользователями сайта, и администрация не несёт ответственности за их содержание. Просьба не заливать файлы, защищенные авторскими правами, а также файлы нелегального содержания!


    _________________
    [Профиль] [ЛС]
    Показать сообщения:    
    Ответить на тему

    Текущее время: Сегодня, в 22:30

    Часовой пояс: GMT + 2



    Вы не можете начинать темы
    Вы не можете отвечать на сообщения
    Вы не можете редактировать свои сообщения
    Вы не можете удалять свои сообщения
    Вы не можете голосовать в опросах
    Вы не можете прикреплять файлы к сообщениям
    Вы не можете скачивать файлы