BitTorrentTracker PerecTracker.org
BitTorrentTracker PerecTracker.org
    
Регистрация  ·  Вход
 
 · 
Забыли пароль?

  • Авиатор / The Aviator (Джордж Миллер / George Miller) [1985, США, драма, приключения, BDRemux 1080p] [GER Transfer] DVO (НТВ+) + AVO (Антон Алексеев) + Sub Eng + Original Eng

    Ответить на тему
     
    Автор Сообщение

    Light

    Создавать темы 01-Июл-2016 16:15

           

    [Цитировать]

    Авиатор / The Aviator
    Страна: США
    Жанр: драма, приключения
    Год выпуска: 1985
    Продолжительность: 01:36:51
    Перевод 1: Профессиональный (двухголосый закадровый) НТВ+
    Перевод 2: Авторский (одноголосый закадровый) Антон Алексеев
    Cубтитры: английские
    Оригинальная аудиодорожка: английский
    -
    Режиссер: Джордж Миллер / George Miller
    В ролях: Кристофер Рив, Розанна Аркетт, Джек Уорден, Сэм Уонамейкер, Скотт Уилсон, Тайн Дейли, Марша Стрэссмен, Уилл Хэр, Роберт Пирс, Гленн Неуфелд
    -
    Описание: Действие фильма происходит в 20-е годы. Летчик (Рив) вынужден взять в полет взбалмошную пассажирку (Аркетт). Летали тогда на бипланах, сюжет разыгрывает драму выживания в безлюдной, дикой местности. Поначалу отношения летчика и пассажирки были как у кошки с собакой. Потом их самолет разбивается в горах, остальное экранное время они заботятся друг о друге и сражаются с волками. А тем временем в маленьком аэропорту суровый Джек Уорден, управляющий этой почтовой линией, сообщает противному и злому отцу пропавшей пассажирки (Сэм Уонамейкер), что ребята, летающие с почтой, - просто полоумные калеки с наркотической зависимостью от штурвала. (Иванов М.)

    Тип релиза: BDRemux 1080p
    Контейнер: MKV
    Видео: MPEG-4 AVC / NTSC 16:9 / 1920x1080 (1,85:1) / 25983 kbps / 23,976 fps / 0.523 bit/pixel / High@L4.1
    Аудио 1: Russian / Dolby Digital Audio / 2.0 Ch / 48 kHz / 192 kbps / 16 bit / DVO / НТВ+
    Аудио 2: Russian / Dolby Digital Audio / 2.0 Ch / 48 kHz / 192 kbps / 16 bit / АVO / Антон Алексеев
    Аудио 3: English / DTS-HD Master Audio / 2.0 Ch / 48 kHz / 1706 kbps / 16-bit (DTS Core: 2.0 Ch / 48 kHz / 1509 kbps / 16-bit) / Original
    Формат субтитров: softsub (SRT)
    Навигация по главам: есть

    MediaInfo

    Общее
    Уникальный идентификатор                 : 175559045040535230468028753639550185067 (0x841371330BEE81D9A99DEE8F64F36E6B)
    Полное имя                               : D:\The Aviator.1985.BDRemux.1080p.mkv
    Формат                                   : Matroska
    Версия формата                           : Version 4 / Version 2
    Размер файла                             : 19,0 Гбайт
    Продолжительность                        : 1 ч. 36 м.
    Режим общего битрейта                    : Переменный
    Общий поток                              : 28,1 Мбит/сек
    Дата кодирования                         : UTC 2016-06-29 21:11:32
    Программа кодирования                    : mkvmerge v9.2.0 ('Photograph') 64bit
    Библиотека кодирования                   : libebml v1.3.3 + libmatroska v1.4.4
    Видео
    Идентификатор                            : 1
    Формат                                   : AVC
    Формат/Информация                        : Advanced Video Codec
    Профиль формата                          : High@L4.1
    Параметр CABAC формата                   : Да
    Параметр ReFrames формата                : 4 кадра
    Идентификатор кодека                     : V_MPEG4/ISO/AVC
    Продолжительность                        : 1 ч. 36 м.
    Вид битрейта                             : Переменный
    Битрейт                                  : 26,0 Мбит/сек
    Максимальный битрейт                     : 35,0 Мбит/сек
    Ширина                                   : 1920 пикселей
    Высота                                   : 1080 пикселей
    Соотношение сторон                       : 16:9
    Режим частоты кадров                     : Постоянный
    Частота кадров                           : 23,976 (24000/1001) кадра/сек
    Стандарт вещания                         : NTSC
    Цветовое пространство                    : YUV
    Субдискретизация насыщенности            : 4:2:0
    Битовая глубина                          : 8 бит
    Тип развёртки                            : Прогрессивная
    Бит/(Пиксели*Кадры)                      : 0.523
    Размер потока                            : 17,6 Гбайт (93%)
    Язык                                     : English
    Default                                  : Да
    Forced                                   : Нет
    Цветовой диапазон                        : Limited
    Основные цвета                           : BT.709
    Характеристики трансфера                 : BT.709
    Коэффициенты матрицы                     : BT.709
    Аудио #1
    Идентификатор                            : 2
    Формат                                   : AC-3
    Формат/Информация                        : Audio Coding 3
    Расширение режима                        : CM (complete main)
    Параметр Endianness формата              : Big
    Идентификатор кодека                     : A_AC3
    Продолжительность                        : 1 ч. 36 м.
    Вид битрейта                             : Постоянный
    Битрейт                                  : 192 Кбит/сек
    Каналы                                   : 2 канала
    Расположение каналов                     : Front: L R
    Частота                                  : 48,0 КГц
    Частота кадров                           : 31,250 кадров/сек (1536 spf)
    Метод сжатия                             : С потерями
    Размер потока                            : 133 Мбайт (1%)
    Заголовок                                : DVO / НТВ+
    Язык                                     : Russian
    Default                                  : Да
    Forced                                   : Нет
    Аудио #2
    Идентификатор                            : 3
    Формат                                   : AC-3
    Формат/Информация                        : Audio Coding 3
    Расширение режима                        : CM (complete main)
    Параметр Endianness формата              : Big
    Идентификатор кодека                     : A_AC3
    Продолжительность                        : 1 ч. 36 м.
    Вид битрейта                             : Постоянный
    Битрейт                                  : 192 Кбит/сек
    Каналы                                   : 2 канала
    Расположение каналов                     : Front: L R
    Частота                                  : 48,0 КГц
    Частота кадров                           : 31,250 кадров/сек (1536 spf)
    Метод сжатия                             : С потерями
    Размер потока                            : 133 Мбайт (1%)
    Заголовок                                : AVO / Антон Алексеев
    Язык                                     : Russian
    Default                                  : Нет
    Forced                                   : Нет
    Аудио #3
    Идентификатор                            : 4
    Формат                                   : DTS
    Формат/Информация                        : Digital Theater Systems
    Профиль формата                          : MA / Core
    Режим                                    : 16
    Параметр Endianness формата              : Big
    Идентификатор кодека                     : A_DTS
    Продолжительность                        : 1 ч. 36 м.
    Вид битрейта                             : Переменный / Постоянный
    Битрейт                                  : 1706 Кбит/сек / 1509 Кбит/сек
    Каналы                                   : 2 канала
    Расположение каналов                     : Front: L R
    Частота                                  : 48,0 КГц
    Частота кадров                           : 93,750 кадра/сек (512 spf)
    Битовая глубина                          : 16 бит
    Метод сжатия                             : Без потерь / Lossy
    Размер потока                            : 1,15 Гбайт (6%)
    Заголовок                                : Original
    Язык                                     : English
    Default                                  : Нет
    Forced                                   : Нет
    Текст
    Идентификатор                            : 5
    Формат                                   : UTF-8
    Идентификатор кодека                     : S_TEXT/UTF8
    Идентификатор кодека/Информация          : UTF-8 Plain Text
    Продолжительность                        : 1 ч. 33 м.
    Битрейт                                  : 43 бит/сек
    Count of elements                        : 715
    Размер потока                            : 29,8 Кбайт (0%)
    Заголовок                                : Original
    Язык                                     : English
    Default                                  : Нет
    Forced                                   : Нет
    Меню
    00:00:00.000                             : en:00:00:00.000
    00:05:13.813                             : en:00:05:13.813
    00:14:37.126                             : en:00:14:37.126
    00:24:45.109                             : en:00:24:45.109
    00:31:35.977                             : en:00:31:35.977
    00:41:53.261                             : en:00:41:53.261
    00:49:59.163                             : en:00:49:59.163
    00:58:23.333                             : en:00:58:23.333
    01:07:42.809                             : en:01:07:42.809
    01:15:25.771                             : en:01:15:25.771
    01:22:58.599                             : en:01:22:58.599
    01:31:02.040                             : en:01:31:02.040

    Скриншоты

    Скачать .torrent

    Скачать торрент-файл бесплатно и на максимальной скорости!

    Как скачивать? · Что такое торрент? · Рейтинг и ограничения

    !ВНИМАНИЕ!
    Сайт не распространяет и не хранит электронные версии произведений, а занимается лишь лишь предоставлением доступа к создаваемому пользователями каталогу ссылок на торрент-файлы, которые содержат только списки хеш-сумм, убедительная просьба с жалобами обращаться напрямую к пользователю. Файлы для обмена на трекере предоставлены пользователями сайта, и администрация не несёт ответственности за их содержание. Просьба не заливать файлы, защищенные авторскими правами, а также файлы нелегального содержания!


    _________________
    [Профиль] [ЛС]
    Показать сообщения:    
    Ответить на тему

    Текущее время: Сегодня, в 19:35

    Часовой пояс: GMT + 2



    Вы не можете начинать темы
    Вы не можете отвечать на сообщения
    Вы не можете редактировать свои сообщения
    Вы не можете удалять свои сообщения
    Вы не можете голосовать в опросах
    Вы не можете прикреплять файлы к сообщениям
    Вы не можете скачивать файлы