BitTorrentTracker PerecTracker.org
BitTorrentTracker PerecTracker.org
    
Регистрация  ·  Вход
 
 · 
Забыли пароль?

  • Чудо-пляж / Miracle Beach (Скотт Снайдер / Skott Snider) [1992, США, мелодрама, комедия, BDRip 720p] DVO (НТВ+) + VO (Алладин 99) + Original (Eng)

    Ответить на тему
     
    Автор Сообщение

    Light

    Создавать темы 01-Июл-2016 16:15

           

    [Цитировать]

    Чудо-пляж / Miracle Beach«It will really raise your spirits»-Страна: США
    Жанр: мелодрама, комедия
    Год выпуска: 1992
    Продолжительность: 01:27:42-Перевод №1: Профессиональный (двухголосый закадровый) - НТВ+
    Перевод №2: Одноголосый закадровый - Алладин 99
    Оригинальная аудиодорожка: English
    Cубтитры: отсутствуют
    Навигация по главам: присутствует - 8 глав-Режиссер: Скотт Снайдер / Skott Snider
    В ролях: Дин Кэмерон, Эми Доленц, Фелисити Ватерман, Брайан Перри, Алексис Аркетт, Пэт Морита, Аллен Гарфилд, Мартин Мулл, Винсент Скьявелли, Брэд Грюнберг-Описание: Скотти, выгнанный с работы, лишившийся жилья, заставший свою подружку в постели с другим, отвергнутый прекрасной девушкой, в которую влюбился с первого взгляда, сидит на пляже рядом с бомжом. Тот, разжалобившись, дарит ему старую бутылку и одеяло. Тем временем повелитель джинов выписывает командировку на Землю симпатичной подчиненной. Пленницей подаренной Скотти бутылки она и оказалась...- -Качество видео: BDRip 720p | исх. BDRemux 1080p - thx: flaSI-I
    Формат: MKV-Видео: 1280x692 (1.85:1), 23.976 fps, H.264, 11439.48 kb/s, 0.527 bit/pixel
    Аудио №1: 48.0 kHz, AC3 Dolby Digital, 2/0 (L,R) ch, ~192 kbps avg | Профессиональный (двухголосый закадровый) - НТВ+
    Аудио №2: 48.0 kHz, AC3 Dolby Digital, 2/0 (L,R) ch, ~192 kbps avg | Одноголосый закадровый - Алладин 99
    Аудио №3: 48.0 kHz, AC3 Dolby Digital, 2/0 (L,R) ch, ~640 kbps avg | English-

    MediaInfo

    General
    Unique ID : 253078358032314866122706403979521780723 (0xBE651E69BF5CA9A2B504982C14396BF3)
    Complete name : D:\Фильмы\Рипы\Miracle Beach.1992.BDRip 720p.eFK tRuAVC.mkv
    Format : Matroska
    Format version : Version 4 / Version 2
    File size : 7.64 GiB
    Duration : 1h 27mn
    Overall bit rate : 12.5 Mbps
    Movie name : Чудо-пляж / Miracle Beach (1992) - Release for rutracker
    Encoded date : UTC 2016-06-30 19:54:19
    Writing application : mkvmerge v9.2.0 ('Photograph') 64bit
    Writing library : libebml v1.3.3 + libmatroska v1.4.4
    Attachements : cover.jpg
    DURATION : 01:27:42.016000000
    NUMBER_OF_FRAMES : 164438
    NUMBER_OF_BYTES : 420961280
    _STATISTICS_WRITING_APP : mkvmerge v9.2.0 ('Photograph') 64bit
    _STATISTICS_WRITING_DATE_UT : 2016-06-30 19:54:19
    _STATISTICS_TAGS : BPS DURATION NUMBER_OF_FRAMES NUMBER_OF_BYTES
    Video
    ID : 1
    Format : AVC
    Format/Info : Advanced Video Codec
    Format profile : High@L4.1
    Format settings, CABAC : Yes
    Format settings, ReFrames : 9 frames
    Codec ID : V_MPEG4/ISO/AVC
    Duration : 1h 27mn
    Bit rate : 11.2 Mbps
    Width : 1 280 pixels
    Height : 692 pixels
    Display aspect ratio : 1.85:1
    Frame rate mode : Constant
    Frame rate : 23.976 fps
    Color space : YUV
    Chroma subsampling : 4:2:0
    Bit depth : 8 bits
    Scan type : Progressive
    Bits/(Pixel*Frame) : 0.527
    Stream size : 6.86 GiB (90%)
    Title : eFK tRuAVC
    Writing library : x264 core 148 r2692kMod 64f4e24
    Encoding settings : cabac=1 / ref=9 / deblock=1:-3:-3 / analyse=0x3:0x113 / me=umh / subme=11 / psy=1 / fade_compensate=0.00 / psy_rd=1.08:0.00 / mixed_ref=1 / me_range=48 / chroma_me=1 / trellis=2 / 8x8dct=1 / cqm=0 / deadzone=21,11 / fast_pskip=0 / chroma_qp_offset=-2 / threads=12 / lookahead_threads=3 / sliced_threads=0 / nr=0 / decimate=1 / interlaced=0 / bluray_compat=0 / constrained_intra=0 / fgo=0 / bframes=16 / b_pyramid=2 / b_adapt=2 / b_bias=0 / direct=3 / weightb=1 / open_gop=0 / weightp=2 / keyint=250 / keyint_min=23 / scenecut=40 / intra_refresh=0 / rc_lookahead=60 / rc=crf / mbtree=0 / crf=17.7000 / qcomp=0.60 / qpmin=0 / qpmax=69 / qpstep=4 / vbv_maxrate=62500 / vbv_bufsize=78125 / crf_max=0.0 / nal_hrd=none / filler=0 / ip_ratio=1.40 / pb_ratio=1.30 / aq=3:0.75
    Language : English
    Default : Yes
    Forced : No
    Color range : Limited
    Color primaries : BT.709
    Transfer characteristics : BT.709
    Matrix coefficients : BT.709
    DURATION : 01:27:41.882000000
    NUMBER_OF_FRAMES : 126159
    NUMBER_OF_BYTES : 7524151671
    _STATISTICS_WRITING_APP : mkvmerge v9.2.0 ('Photograph') 64bit
    _STATISTICS_WRITING_DATE_UT : 2016-06-30 19:54:19
    _STATISTICS_TAGS : BPS DURATION NUMBER_OF_FRAMES NUMBER_OF_BYTES
    Audio #1
    ID : 2
    Format : AC-3
    Format/Info : Audio Coding 3
    Mode extension : CM (complete main)
    Format settings, Endianness : Big
    Codec ID : A_AC3
    Duration : 1h 27mn
    Bit rate mode : Constant
    Bit rate : 192 Kbps
    Channel(s) : 2 channels
    Channel positions : Front: L R
    Sampling rate : 48.0 KHz
    Compression mode : Lossy
    Stream size : 120 MiB (2%)
    Title : Профессиональный (двухголосый закадровый) - НТВ+
    Language : Russian
    Default : Yes
    Forced : No
    Audio #2
    ID : 3
    Format : AC-3
    Format/Info : Audio Coding 3
    Mode extension : CM (complete main)
    Format settings, Endianness : Big
    Codec ID : A_AC3
    Duration : 1h 27mn
    Bit rate mode : Constant
    Bit rate : 192 Kbps
    Channel(s) : 2 channels
    Channel positions : Front: L R
    Sampling rate : 48.0 KHz
    Compression mode : Lossy
    Stream size : 120 MiB (2%)
    Title : Одноголосый закадровый - Алладин 99
    Language : Russian
    Default : No
    Forced : No
    Audio #3
    ID : 4
    Format : AC-3
    Format/Info : Audio Coding 3
    Mode extension : CM (complete main)
    Format settings, Endianness : Big
    Codec ID : A_AC3
    Duration : 1h 27mn
    Bit rate mode : Constant
    Bit rate : 640 Kbps
    Channel(s) : 2 channels
    Channel positions : Front: L R
    Sampling rate : 48.0 KHz
    Compression mode : Lossy
    Stream size : 401 MiB (5%)
    Language : English
    Default : No
    Forced : No
    Menu
    00:00:00.000 : en:00:00:00.000
    00:08:36.015 : en:00:08:36.015
    00:17:32.176 : en:00:17:32.176
    00:30:16.898 : en:00:30:16.898
    00:43:37.240 : en:00:43:37.240
    00:54:06.869 : en:00:54:06.869
    01:03:58.293 : en:01:03:58.293
    01:19:35.145 : en:01:19:35.145

    x264 log

    x264 [info]: frame I:677 Avg QP:17.51 size:123857
    x264 [info]: frame P:23526 Avg QP:18.94 size: 83531
    x264 [info]: frame B:101956 Avg QP:21.10 size: 53701
    x264 [info]: consecutive B-frames: 0.9% 1.1% 4.1% 16.0% 14.6% 43.0% 6.9% 1.8% 4.3% 1.3% 2.1% 2.1% 0.8% 0.2% 0.5% 0.1% 0.3%
    x264 [info]: mb I I16..4: 2.3% 88.7% 9.1%
    x264 [info]: mb P I16..4: 0.2% 35.7% 2.3% P16..4: 19.8% 27.6% 10.6% 0.0% 0.0% skip: 3.8%
    x264 [info]: mb B I16..4: 0.0% 9.6% 0.5% B16..8: 40.2% 24.5% 7.1% direct:11.1% skip: 6.9% L0:46.3% L1:41.6% BI:12.2%
    x264 [info]: 8x8 transform intra:94.0% inter:66.2%
    x264 [info]: direct mvs spatial:99.8% temporal:0.2%
    x264 [info]: coded y,uvDC,uvAC intra: 97.3% 71.7% 30.4% inter: 74.6% 42.4% 1.8%
    x264 [info]: i16 v,h,dc,p: 29% 11% 9% 51%
    x264 [info]: i8 v,h,dc,ddl,ddr,vr,hd,vl,hu: 9% 5% 10% 12% 14% 15% 11% 13% 11%
    x264 [info]: i4 v,h,dc,ddl,ddr,vr,hd,vl,hu: 44% 4% 5% 6% 9% 11% 7% 8% 6%
    x264 [info]: i8c dc,h,v,p: 30% 31% 21% 17%
    x264 [info]: Weighted P-Frames: Y:10.3% UV:5.8%
    x264 [info]: ref P L0: 37.4% 11.2% 17.3% 9.7% 7.1% 5.9% 4.7% 3.3% 2.9% 0.3% 0.0%
    x264 [info]: ref B L0: 64.4% 14.1% 8.5% 4.6% 3.5% 2.8% 1.6% 0.4%
    x264 [info]: ref B L1: 91.5% 8.5%
    x264 [info]: kb/s:11439.48

    Screenshots

    Comparison

    Source

    Encode
    Скачать .torrent

    Скачать торрент-файл бесплатно и на максимальной скорости!

    Как скачивать? · Что такое торрент? · Рейтинг и ограничения

    !ВНИМАНИЕ!
    Сайт не распространяет и не хранит электронные версии произведений, а занимается лишь лишь предоставлением доступа к создаваемому пользователями каталогу ссылок на торрент-файлы, которые содержат только списки хеш-сумм, убедительная просьба с жалобами обращаться напрямую к пользователю. Файлы для обмена на трекере предоставлены пользователями сайта, и администрация не несёт ответственности за их содержание. Просьба не заливать файлы, защищенные авторскими правами, а также файлы нелегального содержания!


    _________________
    [Профиль] [ЛС]
    Показать сообщения:    
    Ответить на тему

    Текущее время: Сегодня, в 12:16

    Часовой пояс: GMT + 2



    Вы не можете начинать темы
    Вы не можете отвечать на сообщения
    Вы не можете редактировать свои сообщения
    Вы не можете удалять свои сообщения
    Вы не можете голосовать в опросах
    Вы не можете прикреплять файлы к сообщениям
    Вы не можете скачивать файлы