BitTorrentTracker PerecTracker.org
BitTorrentTracker PerecTracker.org
    
Регистрация  ·  Вход
 
 · 
Забыли пароль?

  • Tarja Turunen - Krasnodar, Arena Hall, Russia (15.03.2014) [2014, Symphonic Metal, HDCam]

    Ответить на тему
     
    Автор Сообщение

    Columb

    Создавать темы 16-Мар-2014 09:08

           

    [Цитировать]

    Tarja Turunen - Krasnodar, Arena Hall, Russia (15.03.2014)
    Жанр: Symphonic Metal
    Продолжительность: 1:23:22
    Год выпуска: 2014
    Треклист:
    In for a kill
    500 Letters
    Damned and Divine
    Falling awake
    I walk alone
    Anteroom of Death
    Never enough
    Sing for me
    Neverlight
    Mystique voyage
    Die alive
    Medusa
    Victim of Ritual
    Wish I had an Angel (Nightwish cover)
    Until my last breath
    Доп. информация: Снято на Panasonic HDC-HS80.
    Периодически камеру основательно трясёт, так как невозможно было устоять спокойно Поэтому, чтобы потом не было недовольства, вначале ознакомьтесь с материалом на youtube
    Качество: HDCam
    Контейнер: M2TS
    Видео кодек: H.264
    Аудио кодек: AC3
    Видео: MPEG4 Video (H264) 1920x1080 15,8Mbps 25fps
    Аудио: Dolby AC3 256kbps 48000Hz stereo

    Отчёт MediaInfo / BDInfo

    GeneralID : 1 (0x1)Complete name : D:\Моя музыка\Новая папка\00003.MTSFormat : BDAVFormat/Info : Blu-ray VideoFile size : 2.16 GiBDuration : 18mn 33sOverall bit rate mode : VariableOverall bit rate : 16.7 MbpsMaximum Overall bit rate : 18.0 Mbps
    VideoID : 4113 (0x1011)Menu ID : 1 (0x1)Format : AVCFormat/Info : Advanced Video CodecFormat profile : High@L4.0Format settings, CABAC : YesFormat settings, ReFrames : 4 framesCodec ID : 27Duration : 18mn 33sBit rate mode : VariableBit rate : 15.7 MbpsMaximum bit rate : 16.8 MbpsWidth : 1 920 pixelsHeight : 1 080 pixelsDisplay aspect ratio : 16:9Frame rate : 25.000 fpsColor space : YUVChroma subsampling : 4:2:0Bit depth : 8 bitsScan type : InterlacedBits/(Pixel*Frame) : 0.304Stream size : 2.04 GiB (94%)
    AudioID : 4352 (0x1100)Menu ID : 1 (0x1)Format : AC-3Format/Info : Audio Coding 3Mode extension : CM (complete main)Format settings, Endianness : BigCodec ID : 129Duration : 18mn 33sBit rate mode : ConstantBit rate : 256 KbpsChannel(s) : 2 channelsChannel positions : Front: L RSampling rate : 48.0 KHzBit depth : 16 bitsCompression mode : LossyDelay relative to video : -80msStream size : 34.0 MiB (2%)
    TextID : 4608 (0x1200)Menu ID : 1 (0x1)Format : PGSCodec ID : 144Duration : 18mn 32sDelay relative to video : -80ms

    Скриншоты

    Скачать .torrent

    Скачать торрент-файл бесплатно и на максимальной скорости!

    Как скачивать? · Что такое торрент? · Рейтинг и ограничения

    !ВНИМАНИЕ!
    Сайт не распространяет и не хранит электронные версии произведений, а занимается лишь лишь предоставлением доступа к создаваемому пользователями каталогу ссылок на торрент-файлы, которые содержат только списки хеш-сумм, убедительная просьба с жалобами обращаться напрямую к пользователю. Файлы для обмена на трекере предоставлены пользователями сайта, и администрация не несёт ответственности за их содержание. Просьба не заливать файлы, защищенные авторскими правами, а также файлы нелегального содержания!

    [Профиль] [ЛС]
    Показать сообщения:    
    Ответить на тему

    Текущее время: Сегодня, в 00:02

    Часовой пояс: GMT + 2



    Вы не можете начинать темы
    Вы не можете отвечать на сообщения
    Вы не можете редактировать свои сообщения
    Вы не можете удалять свои сообщения
    Вы не можете голосовать в опросах
    Вы не можете прикреплять файлы к сообщениям
    Вы не можете скачивать файлы