BitTorrentTracker PerecTracker.org
BitTorrentTracker PerecTracker.org
    
Регистрация  ·  Вход
 
 · 
Забыли пароль?

  • Королева пустыни / Queen of the Desert (Вернер Херцог / Werner Herzog) [2015, США, Марокко, драма, биография, история, BDRip-AVC] MVO + Original Eng

    Ответить на тему
     
    Автор Сообщение

    Light

    Создавать темы 01-Июл-2016 12:06

           

    [Цитировать]

    Королева пустыни / Queen of the Desert
    Страна: США, Марокко
    Жанр: драма, биография, история
    Год выпуска: 2015
    Продолжительность: 02:08:13-Перевод: Профессиональный (многоголосый закадровый)
    Cубтитры: нет
    Оригинальная аудиодорожка: английский-Режиссер: Вернер Херцог / Werner Herzog-В ролях: Николь Кидман, Джеймс Франко, Роберт Паттинсон, Дэмиэн Льюис, Дженни Агаттер, Холли Эрл, Рени Фейа, Дэвид Колдер, Джихад Абду, Кристина Лоу-Описание: Фильм рассказывает об английской писательнице и разведчице, исследовательнице Востока Гертруде Белл.-Дополнительная информация: присутствует навигация по главам-Сэмпл: http://sendfile.su/1245862-Качество видео: BDRip-AVC
    Качество: BDRip (источник: Queen.of.the.Desert.2015.BDREMUX.1080p.ExKinoRay)
    Формат видео: MKV
    Видео: MPEG4/AVC, 1152x482, 2.40:1, 24.000 fps, 2793 Kbps
    Аудио 1: AC-3, 48.0 KHz, 192 Kbps, 2 channels | многоголосный
    Аудио 2: AC-3, 48.0 KHz, 192 Kbps, 2 channels | оригинал

    MediaInfo

    Формат : Matroska
    Версия формата : Version 2
    Размер файла : 2,85 Гбайт
    Продолжительность : 2 ч. 8 м.
    Общий поток : 3179 Кбит/сек
    Дата кодирования : UTC 2016-06-27 13:38:58
    Программа кодирования : mkvmerge v7.6.0 ('Garden of Dreams') 32bit built on Feb 11 2015 00:18:47
    Библиотека кодирования : libebml v1.3.1 + libmatroska v1.4.2
    Видео
    Идентификатор : 1
    Формат : AVC
    Формат/Информация : Advanced Video Codec
    Профиль формата : High@L4.1
    Параметр CABAC формата : Да
    Параметр ReFrames формата : 14 кадров
    Идентификатор кодека : V_MPEG4/ISO/AVC
    Продолжительность : 2 ч. 8 м.
    Битрейт : 2793 Кбит/сек
    Ширина : 1152 пикселя
    Высота : 482 пикселя
    Соотношение сторон : 2,40:1
    Режим частоты кадров : Постоянный
    Частота кадров : 24,000 кадра/сек
    Цветовое пространство : YUV
    Субдискретизация насыщенности : 4:2:0
    Битовая глубина : 8 бит
    Тип развёртки : Прогрессивная
    Бит/(Пиксели*Кадры) : 0.210
    Размер потока : 2,45 Гбайт (86%)
    Библиотека кодирования : x264 core 148 r2638 7599210
    Настройки программы : cabac=1 / ref=14 / deblock=1:-3:-3 / analyse=0x3:0x113 / me=umh / subme=9 / psy=1 / psy_rd=1.00:0.00 / mixed_ref=1 / me_range=32 / chroma_me=1 / trellis=2 / 8x8dct=1 / cqm=0 / deadzone=21,11 / fast_pskip=0 / chroma_qp_offset=-2 / threads=6 / lookahead_threads=1 / sliced_threads=0 / nr=0 / decimate=1 / interlaced=0 / bluray_compat=0 / constrained_intra=0 / bframes=9 / b_pyramid=2 / b_adapt=2 / b_bias=0 / direct=3 / weightb=1 / open_gop=0 / weightp=2 / keyint=240 / keyint_min=24 / scenecut=40 / intra_refresh=0 / rc_lookahead=40 / rc=2pass / mbtree=0 / bitrate=2793 / ratetol=1.0 / qcomp=0.60 / qpmin=0 / qpmax=69 / qpstep=4 / cplxblur=20.0 / qblur=0.5 / vbv_maxrate=62500 / vbv_bufsize=78125 / nal_hrd=none / filler=0 / ip_ratio=1.40 / pb_ratio=1.30 / aq=1:1.00
    Default : Да
    Forced : Нет
    Statistics Tags Issue : mkvmerge v8.5.2 ('Crosses') 32bit 2016-06-27 10:47:29 / mkvmerge v7.6.0 ('Garden of Dreams') 32bit built on Feb 11 2015 00:18:47 2016-06-27 13:38:58
    FromStats_BitRate : 2793171
    FromStats_Duration : 02:08:12.542000000
    FromStats_FrameCount : 184621
    FromStats_StreamSize : 2685823183
    Аудио #1
    Идентификатор : 2
    Формат : AC-3
    Формат/Информация : Audio Coding 3
    Расширение режима : CM (complete main)
    Параметр Endianness формата : Big
    Идентификатор кодека : A_AC3
    Продолжительность : 2 ч. 8 м.
    Вид битрейта : Постоянный
    Битрейт : 192 Кбит/сек
    Каналы : 2 канала
    Расположение каналов : Front: L R
    Частота : 48,0 КГц
    Частота кадров : 31,250 кадров/сек (1536 spf)
    Метод сжатия : С потерями
    Размер потока : 176 Мбайт (6%)
    Заголовок : закадровый
    Язык : Russian
    Default : Да
    Forced : Нет
    Аудио #2
    Идентификатор : 3
    Формат : AC-3
    Формат/Информация : Audio Coding 3
    Расширение режима : CM (complete main)
    Параметр Endianness формата : Big
    Идентификатор кодека : A_AC3
    Продолжительность : 2 ч. 8 м.
    Вид битрейта : Постоянный
    Битрейт : 192 Кбит/сек
    Каналы : 2 канала
    Расположение каналов : Front: L R
    Частота : 48,0 КГц
    Частота кадров : 31,250 кадров/сек (1536 spf)
    Метод сжатия : С потерями
    Размер потока : 176 Мбайт (6%)
    Заголовок : оригинал
    Язык : English
    Default : Нет
    Forced : Нет

    Скриншот c названием фильма

    Скриншоты

    log 2-pass

    ---[info]: 1152x482p 1:1 @ 24/1 fps (cfr)
    ---x264 [info]: profile High, level 4.1
    ---x264 [info]: frame I:1002 Avg QP:12.44 size: 89575
    ---x264 [info]: frame P:42470 Avg QP:15.11 size: 29982
    ---x264 [info]: frame B:141149 Avg QP:16.51 size: 9371
    ---x264 [info]: consecutive B-frames: 2.5% 3.5% 10.4% 19.3% 18.3% 37.3% 4.8% 1.1% 1.6% 1.2%
    ---x264 [info]: ref P L0: 47.1% 12.8% 14.9% 5.7% 4.5% 3.3% 2.9% 1.7% 1.5% 1.3% 1.2% 1.0% 1.0% 1.0% 0.2% 0.0%
    ---x264 [info]: ref B L0: 70.4% 11.9% 5.7% 3.0% 2.1% 1.7% 1.4% 0.9% 0.8% 0.7% 0.6% 0.4% 0.2%
    ---x264 [info]: ref B L1: 92.1% 7.9%
    ---x264 [info]: kb/s:2793.17
    ---encoded 184621 frames, 2.90 fps, 2793.17 kb/s
    --Final statistics
    ---Video Bitrate Desired: 2793 kbit/s
    ---Video Bitrate Obtained (approximate): 2793 kbit/s
    Скачать .torrent

    Скачать торрент-файл бесплатно и на максимальной скорости!

    Как скачивать? · Что такое торрент? · Рейтинг и ограничения

    !ВНИМАНИЕ!
    Сайт не распространяет и не хранит электронные версии произведений, а занимается лишь лишь предоставлением доступа к создаваемому пользователями каталогу ссылок на торрент-файлы, которые содержат только списки хеш-сумм, убедительная просьба с жалобами обращаться напрямую к пользователю. Файлы для обмена на трекере предоставлены пользователями сайта, и администрация не несёт ответственности за их содержание. Просьба не заливать файлы, защищенные авторскими правами, а также файлы нелегального содержания!


    _________________
    [Профиль] [ЛС]
    Показать сообщения:    
    Ответить на тему

    Текущее время: Сегодня, в 06:09

    Часовой пояс: GMT + 2



    Вы не можете начинать темы
    Вы не можете отвечать на сообщения
    Вы не можете редактировать свои сообщения
    Вы не можете удалять свои сообщения
    Вы не можете голосовать в опросах
    Вы не можете прикреплять файлы к сообщениям
    Вы не можете скачивать файлы