Register  ·  Log in
Forgot password?

  • Высотка / High-Rise (Бен Уитли / Ben Wheatley) [2015, Великобритания, Бельгия, драма, WEB-DLRip] Dub

    Reply to topic
    Author Message


    Post 01-Jul-2016 13:06



    Высотка / High-Rise
    Страна: Великобритания, Бельгия
    Жанр: драма
    Год выпуска: 2015
    Продолжительность: 01:58:49
    Перевод: Профессиональный (дублированный)
    Cубтитры: нет
    Режиссер: Бен Уитли / Ben Wheatley
    В ролях: Том Хиддлстон, Джереми Айронс, Сиенна Миллер, Люк Эванс, Элизабет Мосс, Джеймс Пьюрфой, Кили Хоуз, Питер Фердинандо, Сиенна Гиллори, Рис Шерсмит, Энцо Чиленти, Август Прю, Рентон Скиннер, Стэйси Мартин, Тони Вэй, Лейла Миммек, Луис Сюк, Нил Мэскелл, Александра Уивер, Джулия Дикин
    Описание: Элитная высотка — идеальная модель мира будущего. Здесь есть всё для комфортной и роскошной жизни. Но зависть, соперничество, жажда острых ощущений постепенно разжигают открытую вражду между жителями высотки, заставляя забыть о законах морали даже лучших из них.
    Качество видео: WEB-DLRip
    Формат видео: AVI
    Видео: 720x304 (2.37:1), 23.976 fps, XviD build 73 ~1359 kbps avg, 0.26 bit/pixel
    Аудио: 48 kHz, AC3 Dolby Digital, 3/2 (L,C,R,l,r) + LFE ch, ~384 kbps - iTunes


    Complete name : E:\Zona Downloads\High-Rise.2015.WEB-DLRip.1.45Gb..avi
    Format : AVI
    Format/Info : Audio Video Interleave
    File size : 1.45 GiB
    Duration : 1h 58mn
    Overall bit rate : 1 751 Kbps
    ID : 0
    Format : MPEG-4 Visual
    Format profile : Advanced Simple@L5
    Format settings, BVOP : 1
    Format settings, QPel : No
    Format settings, GMC : No warppoints
    Format settings, Matrix : Custom
    Codec ID : XVID
    Codec ID/Hint : XviD
    Duration : 1h 58mn
    Bit rate : 1 359 Kbps
    Width : 720 pixels
    Height : 304 pixels
    Display aspect ratio : 2.35:1
    Frame rate : 23.976 fps
    Color space : YUV
    Chroma subsampling : 4:2:0
    Bit depth : 8 bits
    Scan type : Progressive
    Compression mode : Lossy
    Bits/(Pixel*Frame) : 0.259
    Stream size : 1.13 GiB (78%)
    Writing library : XviD 73
    ID : 1
    Format : AC-3
    Format/Info : Audio Coding 3
    Mode extension : CM (complete main)
    Format settings, Endianness : Big
    Codec ID : 2000
    Duration : 1h 58mn
    Bit rate mode : Constant
    Bit rate : 384 Kbps
    Channel(s) : 6 channels
    Channel positions : Front: L C R, Side: L R, LFE
    Sampling rate : 48.0 KHz
    Bit depth : 16 bits
    Compression mode : Lossy
    Stream size : 326 MiB (22%)
    Alignment : Aligned on interleaves
    Interleave, duration : 64 ms (1.53 video frames)
    Interleave, preload duration : 192 ms
    Title : iTunes

    Скриншот c названием фильма


    Download .torrent

    Download free and at maximum speed!

    How to Download? · What is a torrent? · Ratings and Limitations

    The site does not extend and does not store electronic(digital) versions of products, and only gives access to a reference catalogue created by users on torrent-files which contain only lists of the hash-sums, the earnest entreaty, with complaints(abuse) to access directly to the user. Files for an exchange on tracker are given by users of a site, and the administration does not bear the responsibility for their maintenance. The request to not fill in the files protected by copyrights, and also files of the illegal maintenance!

    [Profile] [PM]
    Display posts from previous:    
    Reply to topic

    The time now is: Today 09:45

    All times are GMT + 3 Hours

    You cannot post new topics in this forum
    You cannot reply to topics in this forum
    You cannot edit your posts in this forum
    You cannot delete your posts in this forum
    You cannot vote in polls in this forum
    You cannot attach files in this forum
    You cannot download files in this forum