BitTorrentTracker PerecTracker.org
BitTorrentTracker PerecTracker.org
    
Регистрация  ·  Вход
 
 · 
Забыли пароль?

  • Подводная братва / Shark Tale (Бибо Бержерон / Bibo Bergeron, Вики Дженсон / Vicky Jenson, Роб Леттерман / Rob Letterman) [2004, США, комедия, приключения, семейный, WEB-DLRip-AVC] Dub + Original Eng + Sub Rus, Eng

    Ответить на тему
     
    Автор Сообщение

    Flirldrerve

    Создавать темы 01-Июл-2016 03:53

           

    [Цитировать]

    Подводная братва / Shark Tale
    Страна: США
    Жанр: мультфильм, комедия, приключения, семейный
    Продолжительность: 01:29:50
    Год выпуска: 2004
    Перевод: Профессиональный (дублированный)
    Русские субтитры: есть--Режиссёр: Бибо Бержерон / Bibo Bergeron, Вики Дженсон / Vicky Jenson, Роб Леттерман / Rob Letterman--Роли озвучивали: Уилл Смит, Роберт Де Ниро, Рене Зельвегер, Джек Блэк, Анджелина Джоли, Мартин Скорсезе, Зигги Марли, Даг Э. Даг, Майкл Империоли, Винсент Пасторе, Питер Фальк, Кэти Курик, Дэвид Сорен, Дэвид П. Смит, Ленни Венито, Дженифер Льюис, Кристина Агилера, Мисси Эллиот...--Роли дублировали: Сергей Дьячков, Станислав Концевич, Ксения Бржезовская, Роман Бурлаков, Анна Геллер, Евгений Дятлов, Артур Ераносов, Максим Сергеев, Сергей Воробьев, Борис Улитин, Юрий Дедович, Елена Шульман, Роман Рязанцев, Эльвира Ишмуратова, Людмила Безуглая...--Описание: Весь подводный мир встревожен убийством главы главной преступной группировки акул и, надо же, на месте преступления находят ничего не подозревающего малька Оскара! Всю жизнь Оскар мечтал быть сильным и знаменитым, и вот ему представился прекрасный случай воспользоваться чужой славой. Но очень скоро Оскар понимает, что он натворил, взяв титул «Гроза Акул»…--Доп. информация: | IMDB | КиноПоиск | Сэмпл |

    --Качество: WEB-DLRip-AVC
    Формат: MKV
    Видео: AVC, 624x350 (16:9), 1038 kbps, 23.976 fps, 0.198 bit/pixel
    Аудио 1: AАС-HE, 48.0 KHz, 64 Kbps, 2 channels
    Аудио 2: AАС-HE, 48.0 KHz, 64 Kbps, 2 channels
    Субтитры: Русские, English, English (SDH)

    Скриншоты

    Подробные технические данные

    x264

    raw [info]: 624x350p 1:1 @ 24000/1001 fps (cfr)
    x264 [info]: using SAR=1/1
    x264 [info]: using cpu capabilities: MMX2 SSE2Fast SSSE3 SSE4.2 AVX
    x264 [info]: profile High, level 3.1
    x264 [info]: frame I:1072 Avg QP:14.05 size: 46610
    x264 [info]: frame P:35002 Avg QP:18.25 size: 10514
    x264 [info]: frame B:93004 Avg QP:23.03 size: 3015
    x264 [info]: consecutive B-frames: 2.6% 7.6% 6.6% 68.6% 4.6% 3.8% 2.5% 0.3% 0.2% 0.1% 1.5% 0.2% 0.0% 0.0% 0.0% 0.6%
    x264 [info]: mb I I16..4: 5.2% 56.5% 38.2%
    x264 [info]: mb P I16..4: 1.9% 10.5% 2.8% P16..4: 32.7% 15.3% 15.6% 1.7% 0.7% skip:18.7%
    x264 [info]: mb B I16..4: 0.2% 1.4% 0.5% B16..8: 24.5% 9.2% 3.9% direct: 3.9% skip:56.4% L0:35.2% L1:42.3% BI:22.4%
    x264 [info]: 8x8 transform intra:66.6% inter:51.7%
    x264 [info]: direct mvs spatial:92.1% temporal:7.9%
    x264 [info]: coded y,uvDC,uvAC intra: 77.7% 86.1% 64.0% inter: 17.5% 19.9% 11.8%
    x264 [info]: i16 v,h,dc,p: 18% 26% 10% 46%
    x264 [info]: i8 v,h,dc,ddl,ddr,vr,hd,vl,hu: 13% 13% 8% 7% 11% 11% 12% 11% 14%
    x264 [info]: i4 v,h,dc,ddl,ddr,vr,hd,vl,hu: 11% 11% 5% 8% 14% 13% 13% 11% 13%
    x264 [info]: i8c dc,h,v,p: 40% 24% 19% 17%
    x264 [info]: Weighted P-Frames: Y:3.1% UV:2.4%
    x264 [info]: ref P L0: 61.4% 12.1% 10.5% 4.6% 3.1% 2.3% 1.8% 1.1% 0.9% 0.7% 0.6% 0.5% 0.4% 0.0% 0.0%
    x264 [info]: ref B L0: 84.9% 7.9% 3.2% 1.3% 0.8% 0.6% 0.5% 0.3% 0.2% 0.2% 0.1% 0.1%
    x264 [info]: ref B L1: 97.0% 3.0%
    x264 [info]: kb/s:1037.74
    General
    Unique ID : 209872173117812759935298012686761034209 (0x9DE3E90776736D41BB6C9BC30B8F81E1)
    Complete name : Shark Tale (2004).mkv
    Format : Matroska
    Format version : Version 4 / Version 2
    File size : 748 MiB
    Duration : 1h 29mn
    Overall bit rate : 1 166 Kbps
    Movie name : Shark Tale / Подводная братва (2004)
    Encoded date : UTC 2016-06-30 22:29:43
    Writing application : mkvmerge v8.1.0 ('Psychedelic Postcard') 64bit
    Writing library : libebml v1.3.1 + libmatroska v1.4.2
    Cover : Yes
    Attachments : cover.jpg
    Video
    ID : 1
    Format : AVC
    Format/Info : Advanced Video Codec
    Format profile : High@L3.1
    Format settings, CABAC : Yes
    Format settings, ReFrames : 13 frames
    Codec ID : V_MPEG4/ISO/AVC
    Duration : 1h 29mn
    Bit rate : 1 038 Kbps
    Width : 624 pixels
    Height : 350 pixels
    Display aspect ratio : 16:9
    Frame rate mode : Constant
    Frame rate : 23.976 (24000/1001) fps
    Color space : YUV
    Chroma subsampling : 4:2:0
    Bit depth : 8 bits
    Scan type : Progressive
    Bits/(Pixel*Frame) : 0.198
    Stream size : 666 MiB (89%)
    Title : Shark Tale (2004) By optik.1557
    Writing library : x264 core 148 r2705kMod 3f5ed56
    Encoding settings : cabac=1 / ref=13 / deblock=1:-3:-2 / analyse=0x3:0x133 / me=umh / subme=10 / psy=1 / fade_compensate=0.00 / psy_rd=1.03:0.05 / mixed_ref=1 / me_range=48 / chroma_me=1 / trellis=2 / 8x8dct=1 / cqm=0 / deadzone=21,11 / fast_pskip=0 / chroma_qp_offset=-3 / threads=6 / lookahead_threads=1 / sliced_threads=0 / nr=0 / decimate=0 / interlaced=0 / bluray_compat=0 / constrained_intra=0 / fgo=0 / bframes=15 / b_pyramid=2 / b_adapt=2 / b_bias=0 / direct=3 / weightb=1 / open_gop=0 / weightp=2 / keyint=250 / keyint_min=23 / scenecut=40 / intra_refresh=0 / rc_lookahead=60 / rc=2pass / mbtree=1 / bitrate=1038 / ratetol=1.0 / qcomp=0.60 / qpmin=0 / qpmax=69 / qpstep=4 / cplxblur=20.0 / qblur=0.5 / vbv_maxrate=14000 / vbv_bufsize=14000 / nal_hrd=none / filler=0 / ip_ratio=1.40 / aq=2:0.90
    Language : English
    Default : Yes
    Forced : No
    Color range : Limited
    Color primaries : BT.709
    Transfer characteristics : BT.709
    Matrix coefficients : BT.709
    Audio #1
    ID : 2
    Format : AAC
    Format/Info : Advanced Audio Codec
    Format profile : HE-AAC / LC
    Codec ID : A_AAC
    Duration : 1h 29mn
    Bit rate : 62.7 Kbps
    Channel(s) : 2 channels
    Channel positions : Front: L R
    Sampling rate : 48.0 KHz / 24.0 KHz
    Frame rate : 23.438 fps (1024 spf)
    Compression mode : Lossy
    Stream size : 40.2 MiB (5%)
    Title : Дубляж. 64 Kbps
    Language : Russian
    Default : Yes
    Forced : No
    Audio #2
    ID : 3
    Format : AAC
    Format/Info : Advanced Audio Codec
    Format profile : HE-AAC / LC
    Codec ID : A_AAC
    Duration : 1h 29mn
    Bit rate : 62.7 Kbps
    Channel(s) : 2 channels
    Channel positions : Front: L R
    Sampling rate : 48.0 KHz / 24.0 KHz
    Frame rate : 23.438 fps (1024 spf)
    Compression mode : Lossy
    Stream size : 40.2 MiB (5%)
    Title : Original. 64 Kbps
    Language : English
    Default : No
    Forced : No
    Text #1
    ID : 4
    Format : UTF-8
    Codec ID : S_TEXT/UTF8
    Codec ID/Info : UTF-8 Plain Text
    Duration : 1h 28mn
    Bit rate : 115 bps
    Count of elements : 1243
    Stream size : 74.9 KiB (0%)
    Language : Russian
    Default : No
    Forced : No
    Text #2
    ID : 5
    Format : UTF-8
    Codec ID : S_TEXT/UTF8
    Codec ID/Info : UTF-8 Plain Text
    Duration : 1h 29mn
    Bit rate : 82 bps
    Count of elements : 1720
    Stream size : 54.1 KiB (0%)
    Language : English
    Default : No
    Forced : No
    Text #3
    ID : 6
    Format : UTF-8
    Codec ID : S_TEXT/UTF8
    Codec ID/Info : UTF-8 Plain Text
    Duration : 1h 29mn
    Bit rate : 81 bps
    Count of elements : 1473
    Stream size : 53.3 KiB (0%)
    Title : SDH
    Language : English
    Default : No
    Forced : No
    Menu
    00:00:00.000 : en:Chapter 1
    00:04:12.000 : en:Chapter 2
    00:05:40.000 : en:Chapter 3
    00:08:35.000 : en:Chapter 4
    00:11:08.000 : en:Chapter 5
    00:14:54.000 : en:Chapter 6
    00:17:43.000 : en:Chapter 7
    00:20:27.000 : en:Chapter 8
    00:26:05.000 : en:Chapter 9
    00:31:13.000 : en:Chapter 10
    00:36:03.000 : en:Chapter 11
    00:40:38.000 : en:Chapter 12
    00:48:20.000 : en:Chapter 13
    00:53:40.000 : en:Chapter 14
    00:58:28.000 : en:Chapter 15
    01:04:19.000 : en:Chapter 16
    01:06:48.000 : en:Chapter 17
    01:16:37.000 : en:Chapter 18
    01:18:16.000 : en:Chapter 19
    01:21:32.000 : en:Chapter 20
    Скачать .torrent

    Скачать торрент-файл бесплатно и на максимальной скорости!

    Как скачивать? · Что такое торрент? · Рейтинг и ограничения

    !ВНИМАНИЕ!
    Сайт не распространяет и не хранит электронные версии произведений, а занимается лишь лишь предоставлением доступа к создаваемому пользователями каталогу ссылок на торрент-файлы, которые содержат только списки хеш-сумм, убедительная просьба с жалобами обращаться напрямую к пользователю. Файлы для обмена на трекере предоставлены пользователями сайта, и администрация не несёт ответственности за их содержание. Просьба не заливать файлы, защищенные авторскими правами, а также файлы нелегального содержания!


    _________________
    [Профиль] [ЛС]
    Показать сообщения:    
    Ответить на тему

    Текущее время: Сегодня, в 09:57

    Часовой пояс: GMT + 2



    Вы не можете начинать темы
    Вы не можете отвечать на сообщения
    Вы не можете редактировать свои сообщения
    Вы не можете удалять свои сообщения
    Вы не можете голосовать в опросах
    Вы не можете прикреплять файлы к сообщениям
    Вы не можете скачивать файлы