BitTorrentTracker PerecTracker.org
BitTorrentTracker PerecTracker.org
    
Регистрация  ·  Вход
 
 · 
Забыли пароль?

  • Рататуй / Ratatouille (Брэд Бёрд, Ян Пинкава / Brad Bird, Jan Pinkava) [2007, США, Мультфильм, фэнтези, комедия, семейный, BDRip-AVC] Dub (BD EUR) + AVO (Гаврилов) + Original (Eng) + Subs (Rus, Eng)

    Ответить на тему
     
    Автор Сообщение

    Flirldrerve

    Создавать темы 30-Июн-2016 23:41

           

    [Цитировать]

    Рататуй / Ratatouille
    «Он до смерти хочет стать шеф-поваром»
    -Год выхода: 2007
    Выпущено: США / мультфильм, фэнтези, комедия, семейный
    Жанр: боевик, триллер, криминал
    Продолжительность: 01:50:33
    Перевод (1): Профессиональный (полное дублирование) BD EUR |Лицензия|
    Перевод (2): Авторский (одноголосый закадровый) Андрей Гаврилов
    Субтитры: Русские (форсированные + полные), Английские (полные, SDH)
    Оригинальная аудиодорожка: Английская
    Навигация по главам: Есть (32 главы)-Режиссер:
    Брэд Бёрд, Ян Пинкава / Brad Bird, Jan Pinkava-В ролях:
    Пэттон Освальт (Remy, озвучка), Иэн Холм (Skinner, озвучка), Лу Романо (Linguini, озвучка), Брайан Деннехи (Django, озвучка), Питер Сон (Emile, озвучка), Питер О’Тул (Anton Ego, озвучка), Брэд Гэррет (Gusteau, озвучка), Джанин Гарофало (Colette, озвучка), Уилл Арнетт (Horst, озвучка), Джулиус Каллахан (Lalo / Francois, озвучка), Джеймс Римар (Larousse, озвучка)-О фильме:
    Крыс Реми обладает уникальным вкусом. Он готов рисковать собственной жизнью, чтобы посмотреть любимое кулинарное шоу и раздобыть какую-нибудь приправку или просто свежий продукт. Реми живет со своими сородичами, которые его не понимают и не принимают его увлечения кулинарией. Когда Реми случайно попадает на кухню шикарного ресторана, он решает воспользоваться выпавшим ему шансом и проверить свои навыки. На эту же кухню попадает и юный Лингвини. Всё, на что он может расчитывать — это должность уборщика. Но он тоже получает свой шанс…-Релиз групп
    | | IMDB | КиноПоиск | [url=hhttp://multi-up.com/1107938]Сэмпл[/url] |-Качество: BDRip-AVC [BDRemux | 1080p]
    Формат: MKV
    Видео: 1152x480 (2.40:1), 23.976 fps, x264 ~2016 kbps avg, 0.152 bit/pixel
    Аудио #1: 48 kHz, AC3 Dolby Digital, 3/2 (L,C,R,l,r) + LFE ch, ~448.00 kbps avg (DUB) BD EUR
    Аудио #2: 48 kHz, AC3 Dolby Digital, 3/2 (L,C,R,l,r) + LFE ch, ~448.00 kbps avg (AVO) Андрей Гаврилов
    Аудио #3: 48 kHz, AC3 Dolby Digital, 3/2 (L,C,R,l,r) + LFE ch, ~448.00 kbps avg (ENG)-

    Скриншоты

    -

    MediaInfo

    Общее
    Полное имя                               : D:\Ratatui_2007_BDRip_AVC_by_Dalemake.mkv
    Формат                                   : Matroska
    Версия формата                           : Version 4 / Version 2
    Размер файла                             : 2,65 Гбайт
    Продолжительность                        : 1 ч. 50 м.
    Общий поток                              : 3428 Кбит/сек
    Название фильма                          : [Ratatouille_2007_All Films_by Dalemake]
    Дата кодирования                         : UTC 2016-06-30 18:01:22
    Программа кодирования                    : mkvmerge v7.8.0 ('River Man') 32bit built on Apr  3 2015 12:11:22
    Библиотека кодирования                   : libebml v1.3.1 + libmatroska v1.4.2
    _STATISTICS_WRITING_APP                  : mkvmerge v7.8.0 ('River Man') 32bit built on Apr  3 2015 12:11:22
    _STATISTICS_WRITING_DATE_UTC             : 2016-06-30 18:01:22
    _STATISTICS_TAGS                         : BPS DURATION NUMBER_OF_FRAMES NUMBER_OF_BYTES
    DURATION                                 : 01:42:17.965000000
    NUMBER_OF_FRAMES                         : 40
    NUMBER_OF_BYTES                          : 1911
    Видео
    Идентификатор                            : 1
    Формат                                   : AVC
    Формат/Информация                        : Advanced Video Codec
    Профиль формата                          : High@L4.1
    Параметр CABAC формата                   : Да
    Параметр ReFrames формата                : 12 кадров
    Идентификатор кодека                     : V_MPEG4/ISO/AVC
    Продолжительность                        : 1 ч. 50 м.
    Битрейт                                  : 2016 Кбит/сек
    Ширина                                   : 1152 пикселя
    Высота                                   : 480 пикселей
    Соотношение сторон                       : 2,40:1
    Частота кадров                           : 23,976 кадра/сек
    Цветовое пространство                    : YUV
    Субдискретизация насыщенности            : 4:2:0
    Битовая глубина                          : 8 бит
    Тип развёртки                            : Прогрессивная
    Бит/(Пиксели*Кадры)                      : 0.152
    Размер потока                            : 1,56 Гбайт (59%)
    Заголовок                                : [Ratatouille_2007_All Films_by Dalemake]
    Библиотека кодирования                   : x264 core 146 r2538 121396c
    Настройки программы                      : cabac=1 / ref=12 / deblock=1:-3:-2 / analyse=0x3:0x113 / me=umh / subme=11 / psy=1 / psy_rd=1.00:0.00 / mixed_ref=1 / me_range=48 / chroma_me=1 / trellis=2 / 8x8dct=1 / cqm=0 / deadzone=21,11 / fast_pskip=0 / chroma_qp_offset=-4 / threads=6 / lookahead_threads=1 / sliced_threads=0 / nr=0 / decimate=0 / interlaced=0 / bluray_compat=0 / constrained_intra=0 / bframes=13 / b_pyramid=2 / b_adapt=2 / b_bias=0 / direct=3 / weightb=1 / open_gop=0 / weightp=2 / keyint=250 / keyint_min=23 / scenecut=40 / intra_refresh=0 / rc_lookahead=60 / rc=crf / mbtree=0 / crf=17.1 / qcomp=0.60 / qpmin=0 / qpmax=69 / qpstep=4 / vbv_maxrate=50000 / vbv_bufsize=62500 / crf_max=0.0 / nal_hrd=none / filler=0 / ip_ratio=1.40 / pb_ratio=1.35 / aq=1:1.00
    Default                                  : Да
    Forced                                   : Нет
    Аудио #1
    Идентификатор                            : 2
    Формат                                   : AC-3
    Формат/Информация                        : Audio Coding 3
    Расширение режима                        : CM (complete main)
    Параметр Endianness формата              : Big
    Идентификатор кодека                     : A_AC3
    Продолжительность                        : 1 ч. 50 м.
    Вид битрейта                             : Постоянный
    Битрейт                                  : 448 Кбит/сек
    Каналы                                   : 6 каналов
    Расположение каналов                     : Front: L C R, Side: L R, LFE
    Частота                                  : 48,0 КГц
    Битовая глубина                          : 16 бит
    Метод сжатия                             : С потерями
    Размер потока                            : 354 Мбайт (13%)
    Заголовок                                : Dub - BD EUR
    Язык                                     : Russian
    Default                                  : Да
    Forced                                   : Нет
    Аудио #2
    Идентификатор                            : 3
    Формат                                   : AC-3
    Формат/Информация                        : Audio Coding 3
    Расширение режима                        : CM (complete main)
    Параметр Endianness формата              : Big
    Идентификатор кодека                     : A_AC3
    Продолжительность                        : 1 ч. 50 м.
    Вид битрейта                             : Постоянный
    Битрейт                                  : 448 Кбит/сек
    Каналы                                   : 6 каналов
    Расположение каналов                     : Front: L C R, Side: L R, LFE
    Частота                                  : 48,0 КГц
    Битовая глубина                          : 16 бит
    Метод сжатия                             : С потерями
    Размер потока                            : 354 Мбайт (13%)
    Заголовок                                : AVO - Gavrilov
    Язык                                     : Russian
    Default                                  : Нет
    Forced                                   : Нет
    Аудио #3
    Идентификатор                            : 4
    Формат                                   : AC-3
    Формат/Информация                        : Audio Coding 3
    Расширение режима                        : CM (complete main)
    Параметр Endianness формата              : Big
    Идентификатор кодека                     : A_AC3
    Продолжительность                        : 1 ч. 50 м.
    Вид битрейта                             : Постоянный
    Битрейт                                  : 448 Кбит/сек
    Каналы                                   : 6 каналов
    Расположение каналов                     : Front: L C R, Side: L R, LFE
    Частота                                  : 48,0 КГц
    Битовая глубина                          : 16 бит
    Метод сжатия                             : С потерями
    Размер потока                            : 354 Мбайт (13%)
    Заголовок                                : Original
    Язык                                     : English
    Default                                  : Нет
    Forced                                   : Нет
    Текст #1
    Идентификатор                            : 5
    Формат                                   : UTF-8
    Идентификатор кодека                     : S_TEXT/UTF8
    Идентификатор кодека/Информация          : UTF-8 Plain Text
    Заголовок                                : Forced
    Язык                                     : Russian
    Default                                  : Да
    Forced                                   : Нет
    Текст #2
    Идентификатор                            : 6
    Формат                                   : UTF-8
    Идентификатор кодека                     : S_TEXT/UTF8
    Идентификатор кодека/Информация          : UTF-8 Plain Text
    Заголовок                                : Full
    Язык                                     : Russian
    Default                                  : Нет
    Forced                                   : Нет
    Текст #3
    Идентификатор                            : 7
    Формат                                   : UTF-8
    Идентификатор кодека                     : S_TEXT/UTF8
    Идентификатор кодека/Информация          : UTF-8 Plain Text
    Заголовок                                : Full
    Язык                                     : English
    Default                                  : Нет
    Forced                                   : Нет
    Текст #4
    Идентификатор                            : 8
    Формат                                   : UTF-8
    Идентификатор кодека                     : S_TEXT/UTF8
    Идентификатор кодека/Информация          : UTF-8 Plain Text
    Заголовок                                : Full - SDH
    Язык                                     : English
    Default                                  : Нет
    Forced                                   : Нет
    Меню
    00:00:00.000                             : en:World's Best
    00:01:16.201                             : en:This Is Me
    00:06:29.431                             : en:Taste This
    00:09:22.896                             : en:Caught
    00:10:58.074                             : en:Exodus
    00:13:30.977                             : en:Wall Rat
    00:17:40.017                             : en:Le Cooks
    00:19:37.551                             : en:Big Break
    00:24:48.320                             : en:Discovered
    00:28:55.233                             : en:The Pact
    00:33:05.066                             : en:First Day
    00:38:13.416                             : en:Test Drive
    00:40:33.139                             : en:Accidental Success
    00:44:11.232                             : en:Cooking with Colette
    00:46:59.316                             : en:Something New
    00:51:27.668                             : en:Old and New Friends
    00:57:02.169                             : en:Homecoming
    00:59:32.319                             : en:Exterminator
    01:00:53.525                             : en:Kiss & Vinegar
    01:07:19.744                             : en:Losing Control
    01:11:25.656                             : en:Paper Chase
    01:15:28.232                             : en:Up & Down
    01:19:25.094                             : en:Heist to See You
    01:23:30.130                             : en:Big Night(mare)
    01:25:34.463                             : en:Ego Orders
    01:28:18.335                             : en:Truth Hurts
    01:32:39.012                             : en:Dinner Rush
    01:35:41.444                             : en:Best Shot
    01:38:49.715                             : en:The Review
    01:40:54.674                             : en:La Ratatouille
    01:42:58.964                             : en:End Creditouilles
    -
    Скачать .torrent

    Скачать торрент-файл бесплатно и на максимальной скорости!

    Как скачивать? · Что такое торрент? · Рейтинг и ограничения

    !ВНИМАНИЕ!
    Сайт не распространяет и не хранит электронные версии произведений, а занимается лишь лишь предоставлением доступа к создаваемому пользователями каталогу ссылок на торрент-файлы, которые содержат только списки хеш-сумм, убедительная просьба с жалобами обращаться напрямую к пользователю. Файлы для обмена на трекере предоставлены пользователями сайта, и администрация не несёт ответственности за их содержание. Просьба не заливать файлы, защищенные авторскими правами, а также файлы нелегального содержания!


    _________________
    [Профиль] [ЛС]
    Показать сообщения:    
    Ответить на тему

    Текущее время: Сегодня, в 06:02

    Часовой пояс: GMT + 2



    Вы не можете начинать темы
    Вы не можете отвечать на сообщения
    Вы не можете редактировать свои сообщения
    Вы не можете удалять свои сообщения
    Вы не можете голосовать в опросах
    Вы не можете прикреплять файлы к сообщениям
    Вы не можете скачивать файлы