BitTorrentTracker PerecTracker.org
BitTorrentTracker PerecTracker.org
    
Регистрация  ·  Вход
 
 · 
Забыли пароль?

  • Марсианин / The Martian (Ридли Скотт / Ridley Scott) [2015 г., США, Великобритания, фантастика, приключения, BDRip-AVC] [Расширенная версия / Extended Cut] Dub + DVO (вставки на расширенные сцены) + Original Eng + Sub (Rus, Eng)

    Ответить на тему
     
    Автор Сообщение

    Light

    Создавать темы 30-Июн-2016 23:41

           

    [Цитировать]

    -Марсианин / The Martian«Верните его домой»Страна: США, Великобритания
    Студия: 20th Century Fox Film Corporation, Genre Films, International Traders, Mid Atlantic Films, Scott Free Productions, TSG Entertainment
    Жанр: фантастика, приключения
    Год выпуска: 2015
    Продолжительность: 02:31:20-Перевод: Профессиональный (полное дублирование) BD EUR + DVO (вставки на расширенные сцены)
    Оригинальная аудиодорожка: английская
    Cубтитры: русские, английские
    Режиссер: Ридли Скотт / Ridley Scott
    В ролях: Мэтт Дэймон, Джессика Честейн, Чиветель Эджиофор, Кристен Уиг, Джефф Дэниелс, Майкл Пенья, Шон Бин, Кейт Мара, Себастьян Стэн, Аксель Хенни
    Описание: Марсианская миссия «Арес-3» в процессе работы была вынуждена экстренно покинуть планету из-за надвигающейся песчаной бури. Инженер и биолог Марк Уотни получил повреждение скафандра во время песчаной бури. Сотрудники миссии, посчитав его погибшим, эвакуировались с планеты, оставив Марка одного.
    Очнувшись, Уотни обнаруживает, что связь с Землёй отсутствует, но при этом полностью функционирует жилой модуль. Главный герой начинает искать способ продержаться на имеющихся запасах еды, витаминов, воды и воздуха ещё 4 года до прилёта следующей миссии «Арес-4».-
    Сэмпл: скачать-Релиз от -
    Автор рипа: Elheym
    Качество: BDRip-AVC (источник: RARBG / Blu-ray Disc [The.Martian.2015.EXTENDED.1080p.BluRay.AVC.DTS-HD.MA.7.1] / 1080p)
    Контейнер: MKV
    Видео: 1152x480 (2.40:1), 23.976 fps, MPEG-4 AVC, ~3247 kbps avg, 0.245 bit/pixel
    Аудио #1: Русский: AC3, 5.1, 48 kHz, ~448 Кбит/с | Профессиональный (полное дублирование) BD EUR + DVO (вставки на расширенные сцены) |
    Аудио #2: Английский: AC3, 5.1, 48 kHz, ~448 Кбит/с | Оригинал |
    Субтитры: русские (полные: BD, iTunes, Dais**; форсированные), английские (полные, SDH, SDH цветные, форсированные, комментарии режиссера х2)
    Главы: присутствуют, сохранены оригинальные

    MediaInfo

    Уникальный идентификатор : 225866943838483136169981271900512735270 (0xA9EC641C6A34C7CF8210ADCBEB265026)
    Полное имя : The.Martian.Extended.Cut.2015.BDRip-AVC.Rus.Eng.-HQCLUB.mkv
    Формат : Matroska
    Версия формата : Version 2
    Размер файла : 4,47 Гбайт
    Продолжительность : 2 ч. 31 м.
    Общий поток : 4227 Кбит/сек
    Название фильма : Марсианин / The Martian [Extended Cut] (2015) BDRip-AVC by Elheym [HQCLUB]
    Дата кодирования : UTC 2016-06-28 09:41:18
    Программа кодирования : mkvmerge v5.2.0 ('I can't explain') built on Dec 18 2011 18:12:03
    Библиотека кодирования : libebml v1.2.3 + libmatroska v1.3.0
    Обложка : Yes
    Attachments : cover.jpg
    Видео
    Идентификатор : 1
    Формат : AVC
    Формат/Информация : Advanced Video Codec
    Профиль формата : High@L4
    Параметр CABAC формата : Да
    Параметр ReFrames формата : 14 кадров
    Идентификатор кодека : V_MPEG4/ISO/AVC
    Продолжительность : 2 ч. 31 м.
    Битрейт : 3247 Кбит/сек
    Ширина : 1152 пикселя
    Высота : 480 пикселей
    Соотношение сторон : 2,40:1
    Режим частоты кадров : Постоянный
    Частота кадров : 23,976 (24000/1001) кадра/сек
    Цветовое пространство : YUV
    Субдискретизация насыщенности : 4:2:0
    Битовая глубина : 8 бит
    Тип развёртки : Прогрессивная
    Бит/(Пиксели*Кадры) : 0.245
    Размер потока : 3,43 Гбайт (77%)
    Заголовок : Марсианин / The Martian [Extended Cut] (2015) BDRip-AVC by Elheym [HQCLUB]
    Библиотека кодирования : x264 core 148 r2705+54 9f484c1 t_mod_Custom [8-bit@all X86_64]
    Настройки программы : cabac=1 / ref=14 / deblock=1:-3:-2 / analyse=0x3:0x113 / me=umh / subme=11 / psy=1 / fade_compensate=0.00 / psy_rd=1.05:0.00 / mixed_ref=1 / me_range=32 / chroma_me=1 / trellis=2 / 8x8dct=1 / cqm=0 / deadzone=21,11 / fast_pskip=0 / chroma_qp_offset=-2 / threads=6 / lookahead_threads=2 / sliced_threads=0 / nr=0 / decimate=1 / interlaced=0 / bluray_compat=0 / constrained_intra=0 / fgo=0 / bframes=10 / b_pyramid=2 / b_adapt=2 / b_bias=0 / direct=3 / weightb=1 / open_gop=0 / weightp=2 / keyint=230 / keyint_min=23 / scenecut=40 / intra_refresh=0 / rc_lookahead=80 / rc=crf / mbtree=0 / crf=16.4500 / qcomp=0.70 / qpmin=0:0:0 / qpmax=69:69:69 / qpstep=4 / vbv_maxrate=20000 / vbv_bufsize=25000 / crf_max=0.0 / nal_hrd=none / filler=0 / ip_ratio=1.40 / pb_ratio=1.30 / aq=3:0.80 / aq-sensitivity=10.00 / aq-factor=1.00:1.00:1.00 / aq2=0 / aq3=0 / zones=209742,217718,b=0.40
    Язык : English
    Default : Да
    Forced : Нет
    Аудио #1
    Идентификатор : 2
    Формат : AC-3
    Формат/Информация : Audio Coding 3
    Расширение режима : CM (complete main)
    Параметр Endianness формата : Big
    Идентификатор кодека : A_AC3
    Продолжительность : 2 ч. 31 м.
    Вид битрейта : Постоянный
    Битрейт : 448 Кбит/сек
    Каналы : 6 каналов
    Расположение каналов : Front: L C R, Side: L R, LFE
    Частота : 48,0 КГц
    Частота кадров : 31,250 кадров/сек (1536 spf)
    Метод сжатия : С потерями
    Размер потока : 485 Мбайт (11%)
    Заголовок : АС3 5.1 @ 448 kbps - Dub, BD EUR + DVO [at Extended Cut]
    Язык : Russian
    Default : Нет
    Forced : Нет
    Аудио #2
    Идентификатор : 3
    Формат : AC-3
    Формат/Информация : Audio Coding 3
    Расширение режима : CM (complete main)
    Параметр Endianness формата : Big
    Идентификатор кодека : A_AC3
    Продолжительность : 2 ч. 31 м.
    Вид битрейта : Постоянный
    Битрейт : 448 Кбит/сек
    Каналы : 6 каналов
    Расположение каналов : Front: L C R, Side: L R, LFE
    Частота : 48,0 КГц
    Частота кадров : 31,250 кадров/сек (1536 spf)
    Метод сжатия : С потерями
    Размер потока : 485 Мбайт (11%)
    Заголовок : АС3 5.1 @ 448 kbps - Original
    Язык : English
    Default : Нет
    Forced : Нет
    Текст #1
    Идентификатор : 4
    Формат : UTF-8
    Идентификатор кодека : S_TEXT/UTF8
    Идентификатор кодека/Информация : UTF-8 Plain Text
    Заголовок : Full, BD
    Язык : Russian
    Default : Нет
    Forced : Нет
    Текст #2
    Идентификатор : 5
    Формат : UTF-8
    Идентификатор кодека : S_TEXT/UTF8
    Идентификатор кодека/Информация : UTF-8 Plain Text
    Заголовок : Full, iTunes
    Язык : Russian
    Default : Нет
    Forced : Нет
    Текст #3
    Идентификатор : 6
    Формат : UTF-8
    Идентификатор кодека : S_TEXT/UTF8
    Идентификатор кодека/Информация : UTF-8 Plain Text
    Заголовок : Full, Dais
    Язык : Russian
    Default : Нет
    Forced : Нет
    Текст #4
    Идентификатор : 7
    Формат : UTF-8
    Идентификатор кодека : S_TEXT/UTF8
    Идентификатор кодека/Информация : UTF-8 Plain Text
    Заголовок : Forced
    Язык : Russian
    Default : Нет
    Forced : Нет
    Текст #5
    Идентификатор : 8
    Формат : UTF-8
    Идентификатор кодека : S_TEXT/UTF8
    Идентификатор кодека/Информация : UTF-8 Plain Text
    Заголовок : Full
    Язык : English
    Default : Нет
    Forced : Нет
    Текст #6
    Идентификатор : 9
    Формат : UTF-8
    Идентификатор кодека : S_TEXT/UTF8
    Идентификатор кодека/Информация : UTF-8 Plain Text
    Заголовок : SDH
    Язык : English
    Default : Нет
    Forced : Нет
    Текст #7
    Идентификатор : 10
    Формат : UTF-8
    Идентификатор кодека : S_TEXT/UTF8
    Идентификатор кодека/Информация : UTF-8 Plain Text
    Заголовок : SDH Colored
    Язык : English
    Default : Нет
    Forced : Нет
    Текст #8
    Идентификатор : 11
    Формат : UTF-8
    Идентификатор кодека : S_TEXT/UTF8
    Идентификатор кодека/Информация : UTF-8 Plain Text
    Заголовок : Forced
    Язык : English
    Default : Нет
    Forced : Нет
    Текст #9
    Идентификатор : 12
    Формат : UTF-8
    Идентификатор кодека : S_TEXT/UTF8
    Идентификатор кодека/Информация : UTF-8 Plain Text
    Заголовок : Commentary by Ridley Scott, V1
    Язык : English
    Default : Нет
    Forced : Нет
    Текст #10
    Идентификатор : 13
    Формат : UTF-8
    Идентификатор кодека : S_TEXT/UTF8
    Идентификатор кодека/Информация : UTF-8 Plain Text
    Заголовок : Commentary by Ridley Scott, V2
    Язык : English
    Default : Нет
    Forced : Нет
    Меню
    00:00:00.000 : :Chapter 01
    00:03:22.285 : :Chapter 03
    00:10:15.156 : :Chapter 05
    00:15:24.590 : :Chapter 07
    00:18:25.187 : :Chapter 09
    00:21:58.817 : :Chapter 11
    00:24:52.532 : :Chapter 13
    00:29:17.130 : :Chapter 15
    00:32:01.085 : :Chapter 17
    00:34:45.541 : :Chapter 19
    00:40:08.155 : :Chapter 21
    00:42:48.315 : :Chapter 23
    00:47:50.075 : :Chapter 25
    00:51:12.736 : :Chapter 27
    00:58:03.396 : :Chapter 29
    01:01:41.614 : :Chapter 31
    01:04:24.944 : :Chapter 33
    01:08:54.254 : :Chapter 35
    01:11:54.101 : :Chapter 37
    01:16:33.505 : :Chapter 39
    01:22:05.503 : :Chapter 41
    01:26:19.715 : :Chapter 43
    01:37:47.653 : :Chapter 45
    01:44:36.478 : :Chapter 47
    01:50:38.381 : :Chapter 49
    01:53:22.670 : :Chapter 51
    01:59:17.566 : :Chapter 53
    02:03:51.006 : :Chapter 55
    02:07:32.352 : :Chapter 57
    02:14:24.723 : :Chapter 59
    02:20:48.397 : :Chapter 61
    02:23:11.832 : :Chapter 63
    02:31:20.404 : :Chapter 64

    x264 log

    x264 [info]: frame I:2180 Avg QP:14.36 size:108329
    x264 [info]: frame P:48497 Avg QP:16.16 size: 35914
    x264 [info]: frame B:167041 Avg QP:18.64 size: 10773
    x264 [info]: consecutive B-frames: 2.1% 4.0% 7.5% 24.0% 21.8% 29.3% 5.9% 2.4% 1.6% 0.6% 0.8%
    x264 [info]: ref P L0: 47.1% 10.1% 16.8% 6.2% 5.1% 3.5% 3.1% 1.6% 1.5% 1.2% 1.2% 0.9% 0.9% 0.8% 0.1% 0.0%
    x264 [info]: ref B L0: 76.8% 10.0% 4.6% 2.4% 1.7% 1.3% 0.9% 0.6% 0.5% 0.4% 0.4% 0.3% 0.1%
    x264 [info]: ref B L1: 95.5% 4.5%

    Скриншоты

    Сравнения с исходником

    Источник- -Рип-
    Цитата:
    Цитата:

    • Все представленные русские субтитры синхронизированы, отредактированы и дополнены под расширенное издание вашим покорным слугой
    • ** - содержит нецензурную лексику! В количестве одного слова (встречается дважды)
    • Расширенные сцены озвучены - двухголосым переводом студии "Omskbird records"
    Скачать .torrent

    Скачать торрент-файл бесплатно и на максимальной скорости!

    Как скачивать? · Что такое торрент? · Рейтинг и ограничения

    !ВНИМАНИЕ!
    Сайт не распространяет и не хранит электронные версии произведений, а занимается лишь лишь предоставлением доступа к создаваемому пользователями каталогу ссылок на торрент-файлы, которые содержат только списки хеш-сумм, убедительная просьба с жалобами обращаться напрямую к пользователю. Файлы для обмена на трекере предоставлены пользователями сайта, и администрация не несёт ответственности за их содержание. Просьба не заливать файлы, защищенные авторскими правами, а также файлы нелегального содержания!


    _________________
    [Профиль] [ЛС]
    Показать сообщения:    
    Ответить на тему

    Текущее время: Сегодня, в 02:03

    Часовой пояс: GMT + 2



    Вы не можете начинать темы
    Вы не можете отвечать на сообщения
    Вы не можете редактировать свои сообщения
    Вы не можете удалять свои сообщения
    Вы не можете голосовать в опросах
    Вы не можете прикреплять файлы к сообщениям
    Вы не можете скачивать файлы